Kids

HANS CHRISTIAN ANDERSONS THUMBELINA[DVDRIP][ENG] KIDZCORNER&J T R

  • Download 5x Faster
  • Download torrent
  • Direct Download
  • Rate this torrent +  |  -


Torrent info

Name:HANS CHRISTIAN ANDERSONS THUMBELINA[DVDRIP][ENG] KIDZCORNER&J T R

Total Size: 699.04 MB

Magnet: Magnet Link

Seeds: 0

Leechers: 0

Stream: Watch Online @ Movie4u

Last Updated: 0000-00-00 00:00:00 (Update Now)

Torrent added: 2009-08-28 08:29:36



VPN For Torrents

Torrent Files List


524529_DV_L_B.JPG (Size: 699.04 MB) (Files: 5)

 524529_DV_L_B.JPG

37.95 KB

 524529_DV_L_F.JPG

27.62 KB

 THUMB.avi

698.98 MB

 Torrent downloaded from Demonoid.com.txt

0.05 KB

 Tracked by moviesb4time.biz.txt

1.35 KB
 

Announce URL:

Torrent description

From world renowned animator Don Bluth (An American Tail, Titan A.E.) and award-winning composer Barry Manilow comes Hans Christian Andersen's Thumbelina - a magical story that reminds us that if we follow our hearts, nothing is impossible.
When Thumbelina, a tiny enchanted fairy, meets Prince Cornelius, she is sure she's found her heart's desire. But before their romance can blossom, she is kidnapped by a family of show business toads, detained by a scheming beetle and married to a befuddled mole! The whole family will cherish this much-loved and magical tale.


General
Complete name : C:\Users\joker\Documents\HANS CHRISTIAN ANDERSONS-THUMBELINA[DVDRIP][ENG]-KIDZCORNER&J.T.R\THUMB.avi
Format : AVI
Format/Info : Audio Video Interleave
File size : 699 MiB
Duration : 1h 22mn
Overall bit rate : 1 181 Kbps
Writing application : FairUse Wizard - http://fairusewizard.com
Writing library : The best and REALLY easy backup tool

Video
Format : MPEG-4 Visual
Format profile : Streaming [email protected]
Format settings, BVOP : Yes
Format settings, QPel : No
Format settings, GMC : No warppoints
Format settings, Matrix : Default
Muxing mode : Packed bitstream
Codec ID : XVID
Codec ID/Hint : XviD
Duration : 1h 22mn
Bit rate : 1 043 Kbps
Width : 560 pixels
Height : 400 pixels
Display aspect ratio : 1.400
Frame rate : 25.000 fps
Resolution : 24 bits
Colorimetry : 4:2:0
Scan type : Progressive
Bits/(Pixel*Frame) : 0.186
Stream size : 617 MiB (88%)
Writing library : XviD 1.2.0.dev47 (UTC 2006-11-01)

Audio
Format : MPEG Audio
Format version : Version 1
Format profile : Layer 3
Codec ID : 55
Codec ID/Hint : MP3
Duration : 1h 22mn
Bit rate mode : Constant
Bit rate : 128 Kbps
Minimum bit rate : 128 Kbps
Channel(s) : 2 channels
Sampling rate : 48.0 KHz
Resolution : 16 bits
Stream size : 75.8 MiB (11%)
Alignment : Aligned on interleaves
Interleave, duration : 40 ms (1.00 video frame)
Interleave, preload duration : 504 ms
Writing library : LAME3.97
Encoding settings : CBR

related torrents

Torrent name

health leech seeds Size
 


comments (0)

Main Menu