Kids

Handy Manny Fixing it Right [Shadow] [H33t] [DivX] [Avi]

  • Download 5x Faster
  • Download torrent
  • Direct Download
  • Rate this torrent +  |  -
Handy Manny Fixing it Right [Shadow] [H33t] [DivX] [Avi]

Anonymous and Direct Download 300GB+ free


Torrent info

Name:Handy Manny Fixing it Right [Shadow] [H33t] [DivX] [Avi]

Total Size: 542.96 MB

Magnet: Magnet Link

Seeds: 22

Leechers: 1

Stream: Watch Online @ Movie4u

Last Updated: 0000-00-00 00:00:00 (Update Now)

Torrent added: 2009-08-28 08:29:31




Torrent Files List


Handy Manny Fixing it Right [Shadow] [H33t] [DivX] [Avi].avi (Size: 542.96 MB) (Files: 5)

 Handy Manny Fixing it Right [Shadow] [H33t] [DivX] [Avi].avi

542.86 MB

 Handy Manny Fixing it Right [Shadow] [H33t] [DivX] [Avi].txt

5.13 KB

 handymanny1.jpg

22.58 KB

 handymanny2.jpg

78.62 KB

 tracked_by_h33t_com.txt

0.02 KB
 

Announce URL: http://www.h33t.com:3310/announce

Torrent description

----------------------------------------------------------------------------------------------------------------
Description/TagLines
----------------------------------------------------------------------------------------------------------------

Hop up and jump into fun with Handy Manny and his loyal, lovable talking tools. Working together, they ll get the job done right before you can say Gracias, mi amigo! Cheer on Manny and his tools as Rusty heroically overcomes his fear of heights to repair a jungle gym, Pat surprises everyone, including himself, when he finds a clever solution to a really big problem, and Dusty solves that oh-too-familiar mystery Where do socks go? when a clothes dryer seems to be eating them. Join Manny and his gregarious gang of can-do helpers and you ll discover how cooperation and creative thinking make Fixing It Right fantastic fun for everyone!


----------------------------------------------------------------------------------------------------------------
Cast
----------------------------------------------------------------------------------------------------------------

Directors: Charles E. Bastien
(All I could find)

----------------------------------------------------------------------------------------------------------------
File Info
----------------------------------------------------------------------------------------------------------------

----------------------------------------------------------------------------------------------------------------
General
----------------------------------------------------------------------------------------------------------------

Complete name : Handy Manny Fixing it Right [Shadow] [H33t] [DivX] [Avi].avi
Format : AVI
Format/Info : Audio Video Interleave
File size : 543 MiB
Duration : 57mn 46s
Overall bit rate : 1 313 Kbps
Writing application : Lavf51.12.1

----------------------------------------------------------------------------------------------------------------
Video
----------------------------------------------------------------------------------------------------------------

Format : MPEG-4 Visual
Format profile : [email protected]
Format settings, BVOP : No
Format settings, QPel : No
Format settings, GMC : No warppoints
Format settings, Matrix : Default (H.263)
Codec ID : DX50
Codec ID/Hint : DivX 5
Duration : 57mn 46s
Bit rate : 1 173 Kbps
Width : 720 pixels
Height : 480 pixels
Display aspect ratio : 1.500
Frame rate : 23.976 fps
Standard : NTSC
Resolution : 24 bits
Colorimetry : 4:2:0
Scan type : Progressive
Bits/(Pixel*Frame) : 0.142
Stream size : 485 MiB (89%)
Writing library : Lavc51.40.4

----------------------------------------------------------------------------------------------------------------
Audio
----------------------------------------------------------------------------------------------------------------

Format : MPEG Audio
Format version : Version 1
Format profile : Layer 3
Codec ID : 55
Codec ID/Hint : MP3
Duration : 57mn 46s
Bit rate mode : Constant
Bit rate : 128 Kbps
Channel(s) : 2 channels
Sampling rate : 48.0 KHz
Resolution : 16 bits
Stream size : 52.9 MiB (10%)
Alignment : Aligned on interleaves
Interleave, duration : 24 ms (0.58 video frame)
Interleave, preload duration : 24 ms
Writing library : LAME3.97

----------------------------------------------------------------------------------------------------------------
Files Included
----------------------------------------------------------------------------------------------------------------

Handy Manny Fixing it Right [Shadow] [H33t] [DivX] [Avi].avi
handymanny1.jpg
handymanny2.jpg
tracked_by_h33t_com.txt
Handy Manny Fixing it Right [Shadow] [H33t] [DivX] [Avi].txt

Total Size = 542MB

Hash = 901DFE8B2CE56224E34FEF492FBECB604136CB17

----------------------------------------------------------------------------------------------------------------
Personal Notes
----------------------------------------------------------------------------------------------------------------

Kids will love this one :)

This was a new find for me recently and my kids loved it from the start.

related torrents

Torrent name

health leech seeds Size
 


comments (0)

Main Menu