Kids

GARFIELD GETS REAL [DVDRIP][ENG] KIDZCORNER&J T R

  • Download 5x Faster
  • Download torrent
  • Direct Download
  • Rate this torrent +  |  -
GARFIELD GETS REAL [DVDRIP][ENG] KIDZCORNER&J T R

Free and Direct Download with Usenet 300GB+ free


Torrent info

Name:GARFIELD GETS REAL [DVDRIP][ENG] KIDZCORNER&J T R

Total Size: 604.34 MB

Magnet: Magnet Link

Seeds: 0

Leechers: 1

Stream: Watch Online @ Movie4u

Last Updated: 2011-05-10 04:05:14 (Update Now)

Torrent added: 2009-08-28 08:27:38




Torrent Files List


800989_DV_L_B.JPG (Size: 604.34 MB) (Files: 5)

 800989_DV_L_B.JPG

34.84 KB

 800989_DV_L_F.JPG

34.70 KB

 gar.avi

604.27 MB

 Torrent downloaded from Demonoid.com-1.txt

0.05 KB

 Tracked by moviesb4time.biz.txt

1.35 KB
 

Announce URL: http://tracker.publicbt.com/announce

Torrent description

See Garfield Like You've Never Seen Him Before In This New Movie!

Garfield is back! Follow our tubby tabby as he takes the plunge and flees his comfortable cartoon world for the 'real world'. Escaping the boredom of cartoon life, Garfield soon realises that real life felines don't enjoy nearly as much fun as cartoon cats do... as blood thirsty Chihuahuas and body building canines challenge him at every turn. But with the help of some new pals and some trusted old friends, Garfield's wacky adventures teach him where him home really is.


General
Complete name : C:\Users\joker\Documents\GARFIELD GETS REAL-[DVDRIP][ENG]-KIDZCORNER&J.T.R\gar.avi
Format : AVI
Format/Info : Audio Video Interleave
File size : 604 MiB
Duration : 1h 14mn
Overall bit rate : 1 132 Kbps
Writing application : FairUse Wizard - http://fairusewizard.com
Writing library : The best and REALLY easy backup tool

Video
Format : MPEG-4 Visual
Format profile : Streaming [email protected]
Format settings, BVOP : Yes
Format settings, QPel : No
Format settings, GMC : No warppoints
Format settings, Matrix : Default
Muxing mode : Packed bitstream
Codec ID : XVID
Codec ID/Hint : XviD
Duration : 1h 14mn
Bit rate : 994 Kbps
Width : 688 pixels
Height : 384 pixels
Display aspect ratio : 16/9
Frame rate : 25.000 fps
Resolution : 24 bits
Colorimetry : 4:2:0
Scan type : Progressive
Bits/(Pixel*Frame) : 0.150
Stream size : 531 MiB (88%)
Writing library : XviD 1.1.2 (UTC 2006-11-01)

Audio
Format : MPEG Audio
Format version : Version 1
Format profile : Layer 3
Codec ID : 55
Codec ID/Hint : MP3
Duration : 1h 14mn
Bit rate mode : Constant
Bit rate : 128 Kbps
Minimum bit rate : 128 Kbps
Channel(s) : 2 channels
Sampling rate : 48.0 KHz
Resolution : 16 bits
Stream size : 68.4 MiB (11%)
Alignment : Aligned on interleaves
Interleave, duration : 40 ms (1.00 video frame)
Interleave, preload duration : 504 ms
Writing library : LAME3.97
Encoding settings : CBR


related torrents

Torrent name

health leech seeds Size
 

comments (0)

Main Menu