Kids

Dora the Explorer Superbabies [Shadow] [H33t] [DivX] [Avi]

  • Download 5x Faster
  • Download torrent
  • Direct Download
  • Rate this torrent +  |  -
Dora the Explorer Superbabies [Shadow] [H33t] [DivX] [Avi]

Anonymous and Free Direct Download 300GB+


Torrent info

Name:Dora the Explorer Superbabies [Shadow] [H33t] [DivX] [Avi]

Total Size: 791.98 MB

Magnet: Magnet Link

Seeds: 0

Leechers: 0

Stream: Watch Online @ Movie4u

Last Updated: 2016-02-01 18:36:20 (Update Now)

Torrent added: 2009-08-28 08:16:56



VPN For Torrents

Torrent Files List


Baby Dino.avi (Size: 791.98 MB) (Files: 8)

 Baby Dino.avi

197.99 MB

 Catch the Babies.avi

197.89 MB

 Dora the Explorer Superbabies [Shadow] [H33t] [DivX] [Avi].txt

12.99 KB

 dora1.jpg

60.65 KB

 dora2.jpg

30.07 KB

 Por Favor.avi

198.01 MB

 Super Babies.avi

197.99 MB

 tracked_by_h33t_com.txt

0.02 KB
 

tracker

leech seeds
 

Torrent description

----------------------------------------------------------------------------------------------------------------
Description/TagLines
----------------------------------------------------------------------------------------------------------------

With her cheerful nature, inquiring mind, and colorful fashion sense, Nickelodeon's adorable bilingual heroine DORA THE EXPLORER has charmed both preschool children and their parents alike. Designed to simulate a computer game, the animated series follows the cute little Latina girl, her monkey pal Boots, and their anthropomorphic cohorts Map and Backpack as they set out on problem-solving adventures that encourage interaction and physical activity while teaching simple concepts such as counting, logic skills, and basic Spanish. This volume includes two fun-filled, educational episodes featuring Dora's new baby brother and sister.

----------------------------------------------------------------------------------------------------------------
Cast
----------------------------------------------------------------------------------------------------------------

Cast

Caitlin Sanchez ... Dora

Regan Mizrahi ... Boots



----------------------------------------------------------------------------------------------------------------
File Info
----------------------------------------------------------------------------------------------------------------

----------------------------------------------------------------------------------------------------------------
General
----------------------------------------------------------------------------------------------------------------

Complete name : Baby Dino.avi
Format : AVI
Format/Info : Audio Video Interleave
File size : 198 MiB
Duration : 24mn 8s
Overall bit rate : 1 147 Kbps
Writing application : Lavf51.12.1

----------------------------------------------------------------------------------------------------------------
Video
----------------------------------------------------------------------------------------------------------------

Format : MPEG-4 Visual
Format profile : [email protected]
Format settings, BVOP : No
Format settings, QPel : No
Format settings, GMC : No warppoints
Format settings, Matrix : Default (H.263)
Codec ID : DX50
Codec ID/Hint : DivX 5
Duration : 24mn 7s
Bit rate : 1 005 Kbps
Width : 720 pixels
Height : 480 pixels
Display aspect ratio : 1.500
Frame rate : 29.970 fps
Standard : NTSC
Resolution : 24 bits
Colorimetry : 4:2:0
Scan type : Progressive
Bits/(Pixel*Frame) : 0.097
Stream size : 173 MiB (88%)
Writing library : Lavc51.40.4

----------------------------------------------------------------------------------------------------------------
Audio
----------------------------------------------------------------------------------------------------------------

Format : MPEG Audio
Format version : Version 1
Format profile : Layer 3
Codec ID : 55
Codec ID/Hint : MP3
Duration : 24mn 8s
Bit rate mode : Constant
Bit rate : 128 Kbps
Channel(s) : 2 channels
Sampling rate : 48.0 KHz
Resolution : 16 bits
Stream size : 22.1 MiB (11%)
Alignment : Aligned on interleaves
Interleave, duration : 24 ms (0.72 video frame)
Interleave, preload duration : 24 ms
Writing library : LAME3.97

----------------------------------------------------------------------------------------------------------------
General
----------------------------------------------------------------------------------------------------------------

Complete name : Catch the Babies.avi
Format : AVI
Format/Info : Audio Video Interleave
File size : 198 MiB
Duration : 24mn 6s
Overall bit rate : 1 148 Kbps
Writing application : Lavf51.12.1

----------------------------------------------------------------------------------------------------------------
Video
----------------------------------------------------------------------------------------------------------------

Format : MPEG-4 Visual
Format profile : [email protected]
Format settings, BVOP : No
Format settings, QPel : No
Format settings, GMC : No warppoints
Format settings, Matrix : Default (H.263)
Codec ID : DX50
Codec ID/Hint : DivX 5
Duration : 24mn 6s
Bit rate : 1 006 Kbps
Width : 720 pixels
Height : 480 pixels
Display aspect ratio : 1.500
Frame rate : 29.970 fps
Standard : NTSC
Resolution : 24 bits
Colorimetry : 4:2:0
Scan type : Progressive
Bits/(Pixel*Frame) : 0.097
Stream size : 173 MiB (88%)
Writing library : Lavc51.40.4

----------------------------------------------------------------------------------------------------------------
Audio
----------------------------------------------------------------------------------------------------------------

Format : MPEG Audio
Format version : Version 1
Format profile : Layer 3
Codec ID : 55
Codec ID/Hint : MP3
Duration : 24mn 6s
Bit rate mode : Constant
Bit rate : 128 Kbps
Channel(s) : 2 channels
Sampling rate : 48.0 KHz
Resolution : 16 bits
Stream size : 22.1 MiB (11%)
Alignment : Aligned on interleaves
Interleave, duration : 24 ms (0.72 video frame)
Interleave, preload duration : 24 ms

----------------------------------------------------------------------------------------------------------------
General
----------------------------------------------------------------------------------------------------------------

Complete name : Por Favor.avi
Format : AVI
Format/Info : Audio Video Interleave
File size : 198 MiB
Duration : 24mn 7s
Overall bit rate : 1 148 Kbps
Writing application : Lavf51.12.1

----------------------------------------------------------------------------------------------------------------
Video
----------------------------------------------------------------------------------------------------------------

Format : MPEG-4 Visual
Format profile : [email protected]
Format settings, BVOP : No
Format settings, QPel : No
Format settings, GMC : No warppoints
Format settings, Matrix : Default (H.263)
Codec ID : DX50
Codec ID/Hint : DivX 5
Duration : 24mn 6s
Bit rate : 1 006 Kbps
Width : 720 pixels
Height : 480 pixels
Display aspect ratio : 1.500
Frame rate : 29.970 fps
Standard : NTSC
Resolution : 24 bits
Colorimetry : 4:2:0
Scan type : Progressive
Bits/(Pixel*Frame) : 0.097
Stream size : 174 MiB (88%)
Writing library : Lavc51.40.4

----------------------------------------------------------------------------------------------------------------
Audio
----------------------------------------------------------------------------------------------------------------

Format : MPEG Audio
Format version : Version 1
Format profile : Layer 3
Codec ID : 55
Codec ID/Hint : MP3
Duration : 24mn 7s
Bit rate mode : Constant
Bit rate : 128 Kbps
Channel(s) : 2 channels
Sampling rate : 48.0 KHz
Resolution : 16 bits
Stream size : 22.1 MiB (11%)
Alignment : Aligned on interleaves
Interleave, duration : 24 ms (0.72 video frame)
Interleave, preload duration : 24 ms
Writing library : LAME3.97

----------------------------------------------------------------------------------------------------------------
General
----------------------------------------------------------------------------------------------------------------

Complete name : Super Babies.avi
Format : AVI
Format/Info : Audio Video Interleave
File size : 198 MiB
Duration : 24mn 6s
Overall bit rate : 1 148 Kbps
Writing application : Lavf51.12.1

----------------------------------------------------------------------------------------------------------------
Video
----------------------------------------------------------------------------------------------------------------

Format : MPEG-4 Visual
Format profile : [email protected]
Format settings, BVOP : No
Format settings, QPel : No
Format settings, GMC : No warppoints
Format settings, Matrix : Default (H.263)
Codec ID : DX50
Codec ID/Hint : DivX 5
Duration : 24mn 6s
Bit rate : 1 006 Kbps
Width : 720 pixels
Height : 480 pixels
Display aspect ratio : 1.500
Frame rate : 29.970 fps
Standard : NTSC
Resolution : 24 bits
Colorimetry : 4:2:0
Scan type : Progressive
Bits/(Pixel*Frame) : 0.097
Stream size : 174 MiB (88%)
Writing library : Lavc51.40.4

----------------------------------------------------------------------------------------------------------------
Audio
----------------------------------------------------------------------------------------------------------------

Format : MPEG Audio
Format version : Version 1
Format profile : Layer 3
Codec ID : 55
Codec ID/Hint : MP3
Duration : 24mn 6s
Bit rate mode : Constant
Bit rate : 128 Kbps
Channel(s) : 2 channels
Sampling rate : 48.0 KHz
Resolution : 16 bits
Stream size : 22.1 MiB (11%)
Alignment : Aligned on interleaves
Interleave, duration : 24 ms (0.72 video frame)
Interleave, preload duration : 24 ms
Writing library : LAME3.97



----------------------------------------------------------------------------------------------------------------
Files Included
----------------------------------------------------------------------------------------------------------------

Baby Dino.avi
Catch the Babies.avi
Por Favor.avi
Super Babies.avi
dora1.jpg
dora2.jpg
tracked_by_h33t_com.txt
Dora the Explorer Superbabies [Shadow] [H33t] [DivX] [Avi].txt

Total Size = 791MB

Hash: ec5e9975d6c9ea1a22bd32b0e0787f59b8a4b508

----------------------------------------------------------------------------------------------------------------
Personal Notes
----------------------------------------------------------------------------------------------------------------

Kids will love this one :)

related torrents

Torrent name

health leech seeds Size
 


comments (0)

Main Menu