Kids

Dora the Explorer Big sister Dora [Shadow] [H33t] [DivX] [Avi]

  • Download 5x Faster
  • Download torrent
  • Direct Download
  • Rate this torrent +  |  -

Torrent info

Name:Dora the Explorer Big sister Dora [Shadow] [H33t] [DivX] [Avi]

Total Size: 849.99 MB

Magnet: Magnet Link

Seeds: 0

Leechers: 0

Stream: Watch Online @ Movie4u

Last Updated: 2016-02-01 17:48:19 (Update Now)

Torrent added: 2009-08-28 08:16:17



VPN For Torrents

Torrent Files List


[A Letter for Swiper]_04.avi (Size: 849.99 MB) (Files: 8)

 [A Letter for Swiper]_04.avi

212.48 MB

 [Big Sister Dora]_01.avi

212.51 MB

 [Dora Saves The Game]_02.avi

212.43 MB

 [Job Day]_03.avi

212.47 MB

 Dora the Explorer Big sister Dora [Shadow] [H33t] [DivX] [Avi].txt

12.67 KB

 dora1.jpg

60.65 KB

 dora2.jpg

30.07 KB

 tracked_by_h33t_com.txt

0.02 KB
 

tracker

leech seeds
 

Torrent description

----------------------------------------------------------------------------------------------------------------
Description/TagLines
----------------------------------------------------------------------------------------------------------------

Dora is about to become a big sister and what a great big sister dora will be with her talent for teaching praying and helping. Doras papi gives dora a cellular phone soshe will know exactly when her baby sister or brother is arriving and when the phone rings she and boots hurry home to meet the new arrival.

Also includes 3 other episodes.

Actors: Harrison Chad, Jason Thornton, Kathleen Herles, Sasha Toro, Marc Weiner
Directors: Arnie Wong, Sherie Pollack
Writers: Chris Gifford, Eric Weiner, Valerie Walsh
Producers: Brown Johnson, Helena Uszac, Steve Socki




----------------------------------------------------------------------------------------------------------------
File Info
----------------------------------------------------------------------------------------------------------------

----------------------------------------------------------------------------------------------------------------
General
----------------------------------------------------------------------------------------------------------------
Complete name : [Big Sister Dora]_01.avi
Format : AVI
Format/Info : Audio Video Interleave
File size : 213 MiB
Duration : 24mn 6s
Overall bit rate : 1 233 Kbps
Writing application : Lavf51.12.1

----------------------------------------------------------------------------------------------------------------
Video
----------------------------------------------------------------------------------------------------------------
Format : MPEG-4 Visual
Format profile : [email protected]
Format settings, BVOP : No
Format settings, QPel : No
Format settings, GMC : No warppoints
Format settings, Matrix : Default
Codec ID : DX50
Codec ID/Hint : DivX 5
Duration : 24mn 6s
Bit rate : 1 091 Kbps
Width : 720 pixels
Height : 480 pixels
Display aspect ratio : 1.500
Frame rate : 29.970 fps
Standard : NTSC
Resolution : 24 bits
Colorimetry : 4:2:0
Scan type : Progressive
Bits/(Pixel*Frame) : 0.105
Stream size : 188 MiB (88%)
Writing library : Lavc51.40.4

----------------------------------------------------------------------------------------------------------------
Audio
----------------------------------------------------------------------------------------------------------------
Format : MPEG Audio
Format version : Version 1
Format profile : Layer 3
Codec ID : 55
Codec ID/Hint : MP3
Duration : 24mn 6s
Bit rate mode : Constant
Bit rate : 128 Kbps
Channel(s) : 2 channels
Sampling rate : 48.0 KHz
Resolution : 16 bits
Stream size : 22.1 MiB (10%)
Alignment : Aligned on interleaves
Interleave, duration : 24 ms (0.72 video frame)
Interleave, preload duration : 24 ms
Writing library : LAME3.97

----------------------------------------------------------------------------------------------------------------
General
----------------------------------------------------------------------------------------------------------------
Complete name : [Dora Saves The Game]_02.avi
Format : AVI
Format/Info : Audio Video Interleave
File size : 212 MiB
Duration : 24mn 6s
Overall bit rate : 1 232 Kbps
Writing application : Lavf51.12.1

----------------------------------------------------------------------------------------------------------------
Video
----------------------------------------------------------------------------------------------------------------
Format : MPEG-4 Visual
Format profile : [email protected]
Format settings, BVOP : No
Format settings, QPel : No
Format settings, GMC : No warppoints
Format settings, Matrix : Default
Codec ID : DX50
Codec ID/Hint : DivX 5
Duration : 24mn 6s
Bit rate : 1 090 Kbps
Width : 720 pixels
Height : 480 pixels
Display aspect ratio : 1.500
Frame rate : 29.970 fps
Standard : NTSC
Resolution : 24 bits
Colorimetry : 4:2:0
Scan type : Progressive
Bits/(Pixel*Frame) : 0.105
Stream size : 188 MiB (88%)
Writing library : Lavc51.40.4

----------------------------------------------------------------------------------------------------------------
Audio
----------------------------------------------------------------------------------------------------------------
Format : MPEG Audio
Format version : Version 1
Format profile : Layer 3
Codec ID : 55
Codec ID/Hint : MP3
Duration : 24mn 6s
Bit rate mode : Constant
Bit rate : 128 Kbps
Channel(s) : 2 channels
Sampling rate : 48.0 KHz
Resolution : 16 bits
Stream size : 22.1 MiB (10%)
Alignment : Aligned on interleaves
Interleave, duration : 24 ms (0.72 video frame)
Interleave, preload duration : 24 ms
Writing library : LAME3.97

----------------------------------------------------------------------------------------------------------------
General
----------------------------------------------------------------------------------------------------------------
Complete name : [Job Day]_03.avi
Format : AVI
Format/Info : Audio Video Interleave
File size : 212 MiB
Duration : 24mn 6s
Overall bit rate : 1 232 Kbps
Writing application : Lavf51.12.1

----------------------------------------------------------------------------------------------------------------
Video
----------------------------------------------------------------------------------------------------------------
Format : MPEG-4 Visual
Format profile : [email protected]
Format settings, BVOP : No
Format settings, QPel : No
Format settings, GMC : No warppoints
Format settings, Matrix : Default
Codec ID : DX50
Codec ID/Hint : DivX 5
Duration : 24mn 6s
Bit rate : 1 091 Kbps
Width : 720 pixels
Height : 480 pixels
Display aspect ratio : 1.500
Frame rate : 29.970 fps
Standard : NTSC
Resolution : 24 bits
Colorimetry : 4:2:0
Scan type : Progressive
Bits/(Pixel*Frame) : 0.105
Stream size : 188 MiB (88%)
Writing library : Lavc51.40.4

----------------------------------------------------------------------------------------------------------------
Audio
----------------------------------------------------------------------------------------------------------------
Format : MPEG Audio
Format version : Version 1
Format profile : Layer 3
Codec ID : 55
Codec ID/Hint : MP3
Duration : 24mn 6s
Bit rate mode : Constant
Bit rate : 128 Kbps
Channel(s) : 2 channels
Sampling rate : 48.0 KHz
Resolution : 16 bits
Stream size : 22.1 MiB (10%)
Alignment : Aligned on interleaves
Interleave, duration : 24 ms (0.72 video frame)
Interleave, preload duration : 24 ms
Writing library : LAME3.97

----------------------------------------------------------------------------------------------------------------
General
----------------------------------------------------------------------------------------------------------------
Complete name : [A Letter for Swiper]_04.avi
Format : AVI
Format/Info : Audio Video Interleave
File size : 212 MiB
Duration : 24mn 6s
Overall bit rate : 1 232 Kbps
Writing application : Lavf51.12.1

----------------------------------------------------------------------------------------------------------------
Video
----------------------------------------------------------------------------------------------------------------
Format : MPEG-4 Visual
Format profile : [email protected]
Format settings, BVOP : No
Format settings, QPel : No
Format settings, GMC : No warppoints
Format settings, Matrix : Default
Codec ID : DX50
Codec ID/Hint : DivX 5
Duration : 24mn 6s
Bit rate : 1 091 Kbps
Width : 720 pixels
Height : 480 pixels
Display aspect ratio : 1.500
Frame rate : 29.970 fps
Standard : NTSC
Resolution : 24 bits
Colorimetry : 4:2:0
Scan type : Progressive
Bits/(Pixel*Frame) : 0.105
Stream size : 188 MiB (88%)
Writing library : Lavc51.40.4

----------------------------------------------------------------------------------------------------------------
Audio
----------------------------------------------------------------------------------------------------------------
Format : MPEG Audio
Format version : Version 1
Format profile : Layer 3
Codec ID : 55
Codec ID/Hint : MP3
Duration : 24mn 6s
Bit rate mode : Constant
Bit rate : 128 Kbps
Channel(s) : 2 channels
Sampling rate : 48.0 KHz
Resolution : 16 bits
Stream size : 22.1 MiB (10%)
Alignment : Aligned on interleaves
Interleave, duration : 24 ms (0.72 video frame)
Interleave, preload duration : 24 ms
Writing library : LAME3.97

----------------------------------------------------------------------------------------------------------------
Files Included
----------------------------------------------------------------------------------------------------------------

[Big Sister Dora]_01.avi
[Dora Saves The Game]_02.avi
[Job Day]_03.avi
[A Letter for Swiper]_04.avi
dora1.jpg
dora2.png
tracked_by_h33t_com.txt
Dora the Explorer Big sister Dora [Shadow] [H33t] [DivX] [Avi].txt

----------------------------------------------------------------------------------------------------------------
Personal Notes
----------------------------------------------------------------------------------------------------------------

Hope you and your kids enjoy :)

related torrents

Torrent name

health leech seeds Size
 


comments (0)

Main Menu