Kids

Dora saves the Snow Princess [Shadow] [H33t] [DivX] [Avi]

  • Download 5x Faster
  • Download torrent
  • Direct Download
  • Rate this torrent +  |  -
Dora saves the Snow Princess [Shadow] [H33t] [DivX] [Avi]

Anonymous and Direct Download 300GB+ free


Torrent info

Name:Dora saves the Snow Princess [Shadow] [H33t] [DivX] [Avi]

Total Size: 791.14 MB

Magnet: Magnet Link

Seeds: 5

Leechers: 3

Stream: Watch Online @ Movie4u

Last Updated: 2010-11-26 14:56:32 (Update Now)

Torrent added: 2009-08-28 08:16:04




Torrent Files List


Dora saves the Snow Princess [Shadow] [H33t] [DivX] [Avi].avi (Size: 791.14 MB) (Files: 5)

 Dora saves the Snow Princess [Shadow] [H33t] [DivX] [Avi].avi

791.05 MB

 Dora saves the Snow Princess [Shadow] [H33t] [DivX] [Avi].txt

4.99 KB

 dora1.jpg

60.65 KB

 dora2.jpg

30.07 KB

 tracked_by_h33t_com.txt

0.02 KB
 

Announce URL: http://www.h33t.com:3310/announce

Torrent description

----------------------------------------------------------------------------------------------------------------
Description/TagLines
----------------------------------------------------------------------------------------------------------------

It's up to Dora and her friends to save La Princesa Sabrina from the mean witch who locked her into a tower and stole her magic crystal, and now the Snow Forest is melting! Help Dora smile along the way to break the spell!

Includes 2 Bonus episodes after Dora Saves the Snow Princess.

----------------------------------------------------------------------------------------------------------------
Cast
----------------------------------------------------------------------------------------------------------------

Cast (in credits order)

Caitlin Sanchez ... Dora

Regan Mizrahi ... Boots
Matthew Gumley ... Benny the Bull
Alexandria Suarez ... Backpack - Snow Creatures

Produced by
Jeff DeGrandis .... supervising producer
Chris Gifford .... executive producer
Katie McWane .... coordinating producer
Valerie Walsh .... executive producer
Miken Wong .... producer


----------------------------------------------------------------------------------------------------------------
File Info
----------------------------------------------------------------------------------------------------------------

----------------------------------------------------------------------------------------------------------------
General
----------------------------------------------------------------------------------------------------------------

Complete name : Dora saves the Snow Princess [Shadow] [H33t] [DivX] [Avi].avi
Format : AVI
Format/Info : Audio Video Interleave
File size : 791 MiB
Duration : 1h 32mn
Overall bit rate : 1 199 Kbps
Writing application : Lavf51.12.1

----------------------------------------------------------------------------------------------------------------
Video
----------------------------------------------------------------------------------------------------------------

Format : MPEG-4 Visual
Format profile : [email protected]
Format settings, BVOP : No
Format settings, QPel : No
Format settings, GMC : No warppoints
Format settings, Matrix : Default (H.263)
Codec ID : DX50
Codec ID/Hint : DivX 5
Duration : 1h 32mn
Bit rate : 1 057 Kbps
Width : 720 pixels
Height : 480 pixels
Display aspect ratio : 1.500
Frame rate : 29.970 fps
Standard : NTSC
Resolution : 24 bits
Colorimetry : 4:2:0
Scan type : Progressive
Bits/(Pixel*Frame) : 0.102
Stream size : 697 MiB (88%)
Writing library : Lavc51.40.4

----------------------------------------------------------------------------------------------------------------
Audio
----------------------------------------------------------------------------------------------------------------

Format : MPEG Audio
Format version : Version 1
Format profile : Layer 3
Codec ID : 55
Codec ID/Hint : MP3
Duration : 1h 32mn
Bit rate mode : Constant
Bit rate : 128 Kbps
Channel(s) : 2 channels
Sampling rate : 48.0 KHz
Resolution : 16 bits
Stream size : 84.4 MiB (11%)
Alignment : Aligned on interleaves
Interleave, duration : 24 ms (0.72 video frame)
Interleave, preload duration : 24 ms
Writing library : LAME3.97

----------------------------------------------------------------------------------------------------------------
Files Included
----------------------------------------------------------------------------------------------------------------

Dora saves the Snow Princess [Shadow] [H33t] [DivX] [Avi].avi
dora1.jpg
dora2.jpg
tracked_by_h33t_com.txt
Dora saves the Snow Princess [Shadow] [H33t] [DivX] [Avi].txt

Total Size = 791MB

Hash = F76698F4B425AD24576F77D886919B4870B8D59F

----------------------------------------------------------------------------------------------------------------
Personal Notes
----------------------------------------------------------------------------------------------------------------

Kids will love this one :)

related torrents

Torrent name

health leech seeds Size
 


comments (0)

Main Menu