Kids

Chuckle Brothers, The Pirates Of The River Rother [

  • Download 5x Faster
  • Download torrent
  • Direct Download
  • Rate this torrent +  |  -
Chuckle Brothers, The Pirates Of The River Rother [

Free and Direct Download with Usenet.nl 300GB+ free


Torrent info

Name:Chuckle Brothers, The Pirates Of The River Rother [

Total Size: 518.54 MB

Magnet: Magnet Link

Seeds: 0

Leechers: 0

Stream: Watch Online @ Movie4u

Last Updated: 2011-09-02 17:14:32 (Update Now)

Torrent added: 2009-08-28 08:04:39





Torrent Files List


Chuckle Brothers, The - Pirates Of The River Rother.nfo (Size: 518.54 MB) (Files: 39)

 Chuckle Brothers, The - Pirates Of The River Rother.nfo

1.83 KB

 Chuckle Brothers, The - Pirates Of The River Rother.sfv

4.96 KB

 chuckle brothers_01.r00

14.31 MB

 chuckle brothers_01.r01

14.31 MB

 chuckle brothers_01.r02

14.31 MB

 chuckle brothers_01.r03

14.31 MB

 chuckle brothers_01.r04

14.31 MB

 chuckle brothers_01.r05

14.31 MB

 chuckle brothers_01.r06

14.31 MB

 chuckle brothers_01.r07

14.31 MB

 chuckle brothers_01.r08

14.31 MB

 chuckle brothers_01.r09

14.31 MB

 chuckle brothers_01.r10

14.31 MB

 chuckle brothers_01.r11

14.31 MB

 chuckle brothers_01.r12

14.31 MB

 chuckle brothers_01.r13

14.31 MB

 chuckle brothers_01.r14

14.31 MB

 chuckle brothers_01.r15

14.31 MB

 chuckle brothers_01.r16

14.31 MB

 chuckle brothers_01.r17

14.31 MB

 chuckle brothers_01.r18

14.31 MB

 chuckle brothers_01.r19

14.31 MB

 chuckle brothers_01.r20

14.31 MB

 chuckle brothers_01.r21

14.31 MB

 chuckle brothers_01.r22

14.31 MB

 chuckle brothers_01.r23

14.31 MB

 chuckle brothers_01.r24

14.31 MB

 chuckle brothers_01.r25

14.31 MB

 chuckle brothers_01.r26

14.31 MB

 chuckle brothers_01.r27

14.31 MB

 chuckle brothers_01.r28

14.31 MB

 chuckle brothers_01.r29

14.31 MB

 chuckle brothers_01.r30

14.31 MB

 chuckle brothers_01.r31

14.31 MB

 chuckle brothers_01.r32

14.31 MB

 chuckle brothers_01.r33

14.31 MB

 chuckle brothers_01.r34

14.31 MB

 chuckle brothers_01.r35

3.55 MB

 chuckle brothers_01.rar

14.31 MB
 

Announce URL: http://sparksden.org/announce.php

Torrent description

General
Complete name : chuckle brothers_01.avi
Format : AVI
Format/Info : Audio Video Interleave
File size : 513 MiB
Duration : 1h 16mn
Overall bit rate : 942 Kbps

Video
Format : MPEG-4 Visual
Format profile : [email protected]
Format settings, BVOP : No
Format settings, QPel : No
Format settings, GMC : No warppoints
Format settings, Matrix : Default
Codec ID : XVID
Codec ID/Hint : XviD
Duration : 1h 16mn
Bit rate : 800 Kbps
Width : 368 pixels
Height : 208 pixels
Display aspect ratio : 16/9
Frame rate : 29.970 fps
Resolution : 24 bits
Colorimetry : 4:2:0
Scan type : Progressive
Bits/(Pixel*Frame) : 0.349
Stream size : 436 MiB (85%)
Writing library : Magic0432

Audio
Format : MPEG Audio
Format version : Version 1
Format profile : Layer 3
Codec ID : 55
Codec ID/Hint : MP3
Duration : 1h 16mn
Bit rate mode : Constant
Bit rate : 128 Kbps
Channel(s) : 2 channels
Sampling rate : 48.0 KHz
Resolution : 16 bits
Stream size : 69.8 MiB (14%)
Alignment : Aligned on interleaves
Interleave, duration : 24 ms (0.72 video frame)Chuckle Brothers, The   Pirates Of The River Rother [ preview 0

related torrents

Torrent name

health leech seeds Size
 

comments (0)

Main Menu