Kids

Chill Out Scooby Doo [Shadow] [H33t] [DivX] [Avi]

  • Download 5x Faster
  • Download torrent
  • Direct Download
  • Rate this torrent +  |  -
Chill Out Scooby Doo [Shadow] [H33t] [DivX] [Avi]

Anonymous and Free Direct Download 300GB+


Torrent info

Name:Chill Out Scooby Doo [Shadow] [H33t] [DivX] [Avi]

Total Size: 690.31 MB

Magnet: Magnet Link

Seeds: 0

Leechers: 1

Stream: Watch Online @ Movie4u

Last Updated: 2017-04-12 01:43:33 (Update Now)

Torrent added: 2009-08-28 08:04:21



VPN For Torrents

Torrent Files List


Chill Out Scooby Doo [Shadow] [H33t] [DivX] [Avi].avi (Size: 690.31 MB) (Files: 5)

 Chill Out Scooby Doo [Shadow] [H33t] [DivX] [Avi].avi

690.21 MB

 Chill Out Scooby Doo [Shadow] [H33t] [DivX] [Avi].txt

4.81 KB

 scooby1.jpg

75.53 KB

 scooby2.jpg

26.74 KB

 tracked_by_h33t_com.txt

0.02 KB
 

tracker

leech seeds
 

Torrent description

----------------------------------------------------------------------------------------------------------------
Description/TagLines
----------------------------------------------------------------------------------------------------------------

When Scooby, Shaggy and the rest of the gang head out to Himalayas in order to solve a frosty mystery, the surprise that awaits them at their snowbound destination may prove their biggest challenge to date. ~ Jason Buchanan, All Movie Guide

----------------------------------------------------------------------------------------------------------------
Cast
----------------------------------------------------------------------------------------------------------------

Complete Cast:
Frank Welker
Mindy Cohn
René Auberjonois
Jeff Bennett
James Sie
Casey Kasem
Grey DeLisle
James Hong
Kim Mai Guest
Alfred Molina


Director(s):Joe Sichta
Writer(s):Adam Scheinman, Joe Sichta
Producer(s):Joe Sichta, Margaret M. Dean


----------------------------------------------------------------------------------------------------------------
File Info
----------------------------------------------------------------------------------------------------------------

----------------------------------------------------------------------------------------------------------------
General
----------------------------------------------------------------------------------------------------------------

Complete name : Chill Out Scooby Doo [Shadow] [H33t] [DivX] [Avi].avi
Format : AVI
Format/Info : Audio Video Interleave
File size : 690 MiB
Duration : 1h 12mn
Overall bit rate : 1 328 Kbps
Writing application : Lavf51.12.1

----------------------------------------------------------------------------------------------------------------
Video
----------------------------------------------------------------------------------------------------------------

Format : MPEG-4 Visual
Format profile : [email protected]
Format settings, BVOP : No
Format settings, QPel : No
Format settings, GMC : No warppoints
Format settings, Matrix : Default (H.263)
Codec ID : DX50
Codec ID/Hint : DivX 5
Duration : 1h 12mn
Bit rate : 1 187 Kbps
Width : 720 pixels
Height : 480 pixels
Display aspect ratio : 1.500
Frame rate : 23.976 fps
Standard : NTSC
Resolution : 24 bits
Colorimetry : 4:2:0
Scan type : Progressive
Bits/(Pixel*Frame) : 0.143
Stream size : 617 MiB (89%)
Writing library : Lavc51.40.4

----------------------------------------------------------------------------------------------------------------
Audio
----------------------------------------------------------------------------------------------------------------

Format : MPEG Audio
Format version : Version 1
Format profile : Layer 3
Codec ID : 55
Codec ID/Hint : MP3
Duration : 1h 12mn
Bit rate mode : Constant
Bit rate : 128 Kbps
Channel(s) : 2 channels
Sampling rate : 48.0 KHz
Resolution : 16 bits
Stream size : 66.5 MiB (10%)
Alignment : Aligned on interleaves
Interleave, duration : 24 ms (0.58 video frame)
Interleave, preload duration : 24 ms
Writing library : LAME3.97

----------------------------------------------------------------------------------------------------------------
Files Included
----------------------------------------------------------------------------------------------------------------

Chill Out Scooby Doo [Shadow] [H33t] [DivX] [Avi].avi
scooby1.jpg
scooby2.jpg
tracked_by_h33t_com.txt
Chill Out Scooby Doo [Shadow] [H33t] [DivX] [Avi].txt

Total Size = 690MB

----------------------------------------------------------------------------------------------------------------
Personal Notes
----------------------------------------------------------------------------------------------------------------

Kids will love this one :)
After a bit of a vacation I am releasing again :)

related torrents

Torrent name

health leech seeds Size
 


comments (0)

Main Menu