Kids

CASPER A SPIRITED BEGINNING[DVDRIP][ENG] KIDZCORNER&J T R

  • Download 5x Faster
  • Download torrent
  • Direct Download
  • Rate this torrent +  |  -
CASPER A SPIRITED BEGINNING[DVDRIP][ENG] KIDZCORNER&J T R

Anonymous and Free Direct Download 300GB+


Torrent info

Name:CASPER A SPIRITED BEGINNING[DVDRIP][ENG] KIDZCORNER&J T R

Total Size: 700.26 MB

Magnet: Magnet Link

Seeds: 0

Leechers: 0

Stream: Watch Online @ Movie4u

Last Updated: 0000-00-00 00:00:00 (Update Now)

Torrent added: 2009-08-28 08:02:03



VPN For Torrents

Torrent Files List


604135.jpg (Size: 700.26 MB) (Files: 6)

 604135.jpg

71.67 KB

 CAS.avi

699.71 MB

 Casper_A_Spirited_Beginning--cd1.jpg

133.13 KB

 Casper_A_Spirited_Beginning_Australian-[cdcovers_cc]-front.jpg

357.26 KB

 Torrent downloaded from Demonoid.com-1.txt

0.05 KB

 Tracked by moviesb4time.biz.txt

1.35 KB
 

Announce URL:

Torrent description

A SPIRITED BEGINNING is a prequel to the first animated/live-action CASPER feature, introducing the friendliest ghost you know and explaining how he met the other ghouls at Applegate Manor. After being stranded, Casper meets young Chris Carson, a lonely kid who decides to teach Casper how to be a proper ghost. The star-studded cast includes Steve Guttenberg, Lori Laughlin, Rodney Dangerfield, Michael McKean, Ben Stein, Sherman Hemsley, Edie McClurg, Debi Mazar, and the voices of James Earl Jones and Pauly Shore.

General
Complete name : C:\Users\joker\Documents\CASPER-A SPIRITED BEGINNING[DVDRIP][ENG]-KIDZCORNER&J.T.R\CAS.avi
Format : AVI
Format/Info : Audio Video Interleave
File size : 700 MiB
Duration : 1h 30mn
Overall bit rate : 1 081 Kbps
Writing application : FairUse Wizard - http://fairusewizard.com
Writing library : The best and REALLY easy backup tool

Video
Format : MPEG-4 Visual
Format profile : Streaming [email protected]
Format settings, BVOP : Yes
Format settings, QPel : No
Format settings, GMC : No warppoints
Format settings, Matrix : Default
Muxing mode : Packed bitstream
Codec ID : XVID
Codec ID/Hint : XviD
Duration : 1h 30mn
Bit rate : 944 Kbps
Width : 528 pixels
Height : 384 pixels
Display aspect ratio : 1.375
Frame rate : 25.000 fps
Resolution : 24 bits
Colorimetry : 4:2:0
Scan type : Progressive
Bits/(Pixel*Frame) : 0.186
Stream size : 611 MiB (87%)
Writing library : XviD 1.2.0.dev47 (UTC 2006-11-01)

Audio
Format : MPEG Audio
Format version : Version 1
Format profile : Layer 3
Codec ID : 55
Codec ID/Hint : MP3
Duration : 1h 30mn
Bit rate mode : Constant
Bit rate : 128 Kbps
Minimum bit rate : 128 Kbps
Channel(s) : 2 channels
Sampling rate : 48.0 KHz
Resolution : 16 bits
Stream size : 82.8 MiB (12%)
Alignment : Aligned on interleaves
Interleave, duration : 40 ms (1.00 video frame)
Interleave, preload duration : 504 ms
Writing library : LAME3.97
Encoding settings : CBR

related torrents

Torrent name

health leech seeds Size

Spirited Away Anime Eng Dub

1 89 700.31 MB 0
 


comments (0)

Main Menu