Kids

Care Bears The Last Laugh [Shadow] [H33t] [DivX] [Avi]

  • Download 5x Faster
  • Download torrent
  • Direct Download
  • Rate this torrent +  |  -
Care Bears The Last Laugh [Shadow] [H33t] [DivX] [Avi]

Free and Direct Download with Usenet.nl 300GB+ free


Torrent info

Name:Care Bears The Last Laugh [Shadow] [H33t] [DivX] [Avi]

Total Size: 691.78 MB

Magnet: Magnet Link

Seeds: 0

Leechers: 0

Stream: Watch Online @ Movie4u

Last Updated: 2012-02-11 12:44:52 (Update Now)

Torrent added: 2009-08-28 08:01:51





Torrent Files List


Care Bears The Last Laugh [Shadow] [H33t] [DivX] [Avi].avi (Size: 691.78 MB) (Files: 5)

 Care Bears The Last Laugh [Shadow] [H33t] [DivX] [Avi].avi

691.42 MB

 Care Bears The Last Laugh [Shadow] [H33t] [DivX] [Avi].txt

4.13 KB

 carebears1.jpg

169.29 KB

 carebears2.jpg

198.49 KB

 tracked_by_h33t_com.txt

0.02 KB
 

Announce URL:

Torrent description

----------------------------------------------------------------------------------------------------------------
Description/TagLines
----------------------------------------------------------------------------------------------------------------

This contains 6 episodes of Care Bears and a bonus episode released on DvD only!




----------------------------------------------------------------------------------------------------------------
File Info
----------------------------------------------------------------------------------------------------------------

----------------------------------------------------------------------------------------------------------------
General
----------------------------------------------------------------------------------------------------------------
Complete name : Care Bears The Last Laugh [Shadow] [H33t] [DivX] [Avi].avi
Format : AVI
Format/Info : Audio Video Interleave
File size : 691 MiB
Duration : 1h 14mn
Overall bit rate : 1 305 Kbps
Writing application : Lavf51.12.1

----------------------------------------------------------------------------------------------------------------
Video
----------------------------------------------------------------------------------------------------------------
Format : MPEG-4 Visual
Format profile : [email protected]
Format settings, BVOP : No
Format settings, QPel : No
Format settings, GMC : No warppoints
Format settings, Matrix : Default
Codec ID : DX50
Codec ID/Hint : DivX 5
Duration : 1h 14mn
Bit rate : 1 164 Kbps
Width : 720 pixels
Height : 480 pixels
Display aspect ratio : 1.500
Frame rate : 29.970 fps
Standard : NTSC
Resolution : 24 bits
Colorimetry : 4:2:0
Scan type : Progressive
Bits/(Pixel*Frame) : 0.112
Stream size : 616 MiB (89%)
Writing library : Lavc51.40.4

----------------------------------------------------------------------------------------------------------------
Audio
----------------------------------------------------------------------------------------------------------------
Format : MPEG Audio
Format version : Version 1
Format profile : Layer 3
Codec ID : 55
Codec ID/Hint : MP3
Duration : 1h 14mn
Bit rate mode : Constant
Bit rate : 128 Kbps
Channel(s) : 2 channels
Sampling rate : 48.0 KHz
Resolution : 16 bits
Stream size : 67.8 MiB (10%)
Alignment : Aligned on interleaves
Interleave, duration : 24 ms (0.72 video frame)
Interleave, preload duration : 24 ms






----------------------------------------------------------------------------------------------------------------
Files Included
----------------------------------------------------------------------------------------------------------------

Care Bears The Last Laugh [Shadow] [H33t] [DivX] [Avi].avi
carebears1.jpg
carebears2.png
tracked_by_h33t_com.txt
Care Bears The Last Laugh [Shadow] [H33t] [DivX] [Avi].txt

----------------------------------------------------------------------------------------------------------------
Personal Notes
----------------------------------------------------------------------------------------------------------------

Hope you and your kids enjoy :)

related torrents

Torrent name

health leech seeds Size
 

comments (0)

Main Menu