Kids

CARE BEARS THE [email protected] [DVDRIP][ENG]

  • Download 5x Faster
  • Download torrent
  • Direct Download
  • Rate this torrent +  |  -

Torrent info

Name:CARE BEARS THE [email protected] [DVDRIP][ENG]

Total Size: 698.53 MB

Magnet: Magnet Link

Seeds: 0

Leechers: 0

Stream: Watch Online @ Movie4u

Last Updated: 2010-11-20 06:58:14 (Update Now)

Torrent added: 2009-08-28 08:01:36





Torrent Files List


CARE_BEARS_THE_MOVIE (Size: 698.53 MB) (Files: 3)

 CARE_BEARS_THE_MOVIE

  TITLE02.avi

698.50 MB

 front.jpg

36.31 KB

 Torrent downloaded from Demonoid.com.txt

0.05 KB
 

Announce URL: http://inferno.demonoid.com:3408/announce

Torrent description

The Care Bears live in their sky dwelling of Care-A-Lot, spreading joy and light throughout the world. And they give special attention to those who particularly need affection, like orphans Kim and Jason. But Evil Spirit does not approve of all this sweetness and kindness, so with the help of a lost, lonely little boy named Nicholas, he launches a nefarious plot to rob the world of love. Down go the numbers on the Care-o-meter. And down to the Forest of Feelings go the Bears, ready to battle Evil Spirit and make the world safe for happiness and good feelings once again.

General
Complete name : C:\Users\joker\Documents\CARE BEARS -THE [email protected] [DVDRIP][ENG]\CARE_BEARS_THE_MOVIE\TITLE02.avi
Format : AVI
Format/Info : Audio Video Interleave
File size : 698 MiB
Duration : 1h 12mn
Overall bit rate : 1 340 Kbps

Video
Format : MPEG-4 Visual
Format profile : [email protected]
Format settings, BVOP : No
Format settings, QPel : No
Format settings, GMC : No warppoints
Format settings, Matrix : Default
Codec ID : XVID
Codec ID/Hint : XviD
Duration : 1h 12mn
Bit rate : 1 200 Kbps
Width : 640 pixels
Height : 480 pixels
Display aspect ratio : 4/3
Frame rate : 25.000 fps
Resolution : 24 bits
Colorimetry : 4:2:0
Scan type : Progressive
Bits/(Pixel*Frame) : 0.156
Stream size : 625 MiB (90%)
Writing library : Magic0432

Audio
Format : MPEG Audio
Format version : Version 1
Format profile : Layer 3
Codec ID : 55
Codec ID/Hint : MP3
Duration : 1h 12mn
Bit rate mode : Constant
Bit rate : 128 Kbps
Channel(s) : 2 channels
Sampling rate : 44.1 KHz
Resolution : 16 bits
Stream size : 66.7 MiB (10%)
Alignment : Aligned on interleaves
Interleave, duration : 26 ms (0.65 video frame)

related torrents

Torrent name

health leech seeds Size
 

comments (0)

Main Menu