Kids

BOB THE BUILDER [BUILT TO BE WILD][DVDRIP][ENG] KIDZCORNER&J T R

  • Download 5x Faster
  • Download torrent
  • Direct Download
  • Rate this torrent +  |  -
BOB THE BUILDER [BUILT TO BE WILD][DVDRIP][ENG] KIDZCORNER&J T R

Free and Direct Download with Usenet.nl 300GB+ free


Torrent info

Name:BOB THE BUILDER [BUILT TO BE WILD][DVDRIP][ENG] KIDZCORNER&J T R

Total Size: 699.32 MB

Magnet: Magnet Link

Seeds: 0

Leechers: 0

Stream: Watch Online @ Movie4u

Last Updated: 2011-03-04 09:41:51 (Update Now)

Torrent added: 2009-08-28 07:55:11





Torrent Files List


707685_DV_L_B.JPG (Size: 699.32 MB) (Files: 5)

 707685_DV_L_B.JPG

56.04 KB

 707685_DV_L_F.JPG

30.83 KB

 bob.avi

699.24 MB

 Torrent downloaded from Demonoid.com.txt

0.05 KB

 Tracked by moviesb4time.biz.txt

1.35 KB
 

Announce URL:

Torrent description

Meet Jackaroo and Rio ...

Bob and the team travel to Cactus Creek for a Rootin' Tootin' cowboy holiday with their host Rio Rogers, her horse Dollar and her Pick -Up truck Jackaroo.

Muck is determined to prove that he was Built To Be Wild! So when cheeky Spud discovers a disused Mine Shaft, Muck leaps to his rescue and is soon on the biggest adventure of his life.


General
Complete name : C:\Users\joker\Documents\BOB THE BUILDER-[BUILT TO BE WILD][DVDRIP][ENG]-KIDZCORNER&J.T.R\bob.avi
Format : AVI
Format/Info : Audio Video Interleave
File size : 699 MiB
Duration : 56mn 11s
Overall bit rate : 1 740 Kbps
Writing application : FairUse Wizard - http://fairusewizard.com
Writing library : The best and REALLY easy backup tool

Video
Format : MPEG-4 Visual
Format profile : Streaming [email protected]
Format settings, BVOP : Yes
Format settings, QPel : No
Format settings, GMC : No warppoints
Format settings, Matrix : Default
Muxing mode : Packed bitstream
Codec ID : XVID
Codec ID/Hint : XviD
Duration : 56mn 11s
Bit rate : 1 602 Kbps
Width : 688 pixels
Height : 384 pixels
Display aspect ratio : 16/9
Frame rate : 25.000 fps
Resolution : 24 bits
Colorimetry : 4:2:0
Scan type : Progressive
Bits/(Pixel*Frame) : 0.243
Stream size : 644 MiB (92%)
Writing library : XviD 1.2.0.dev47 (UTC 2006-11-01)

Audio
Format : MPEG Audio
Format version : Version 1
Format profile : Layer 3
Codec ID : 55
Codec ID/Hint : MP3
Duration : 56mn 11s
Bit rate mode : Constant
Bit rate : 128 Kbps
Minimum bit rate : 128 Kbps
Channel(s) : 2 channels
Sampling rate : 48.0 KHz
Resolution : 16 bits
Stream size : 51.5 MiB (7%)
Alignment : Aligned on interleaves
Interleave, duration : 40 ms (1.00 video frame)
Interleave, preload duration : 504 ms
Writing library : LAME3.97
Encoding settings : CBR

related torrents

Torrent name

health leech seeds Size
 

comments (0)

Main Menu