Kids

Bob the Builder Bobs White X mas [Shadow] [H33t] [DivX] [Avi]

  • Download 5x Faster
  • Download torrent
  • Direct Download
  • Rate this torrent +  |  -
Bob the Builder Bobs White X mas [Shadow] [H33t] [DivX] [Avi]

Anonymous and Direct Download 300GB+ free


Torrent info

Name:Bob the Builder Bobs White X mas [Shadow] [H33t] [DivX] [Avi]

Total Size: 494.77 MB

Magnet: Magnet Link

Seeds: 0

Leechers: 4

Stream: Watch Online @ Movie4u

Last Updated: 2010-07-26 15:48:29 (Update Now)

Torrent added: 2009-08-28 07:54:34




Torrent Files List


Bob the Builder Bobs White X-mas [Shadow] [H33t] [DivX] [Avi].avi (Size: 494.77 MB) (Files: 5)

 Bob the Builder Bobs White X-mas [Shadow] [H33t] [DivX] [Avi].avi

494.71 MB

 Bob the Builder Bobs White X-mas [Shadow] [H33t] [DivX] [Avi].txt

4.46 KB

 btb1.jpg

36.77 KB

 btb2.jpg

23.53 KB

 tracked_by_h33t_com.txt

0.02 KB
 

Announce URL: http://www.h33t.com:3310/announce

Torrent description

----------------------------------------------------------------------------------------------------------------
Description/TagLines
----------------------------------------------------------------------------------------------------------------

This DVD contains five stories featuring Bob the Builder. Join Bob, Scoop, Muck, Pilchard, Farmer Pickles, and Spud the scarecrow as they celebrate the holiday season. The disc offers a standard full-frame transfer that preserves the original broadcast aspect ratio of 1.33:1. The English soundtrack is clear and crisp. This is an excellent release for those on the lookout for family friendly entertainment. ~ Perry Seibert, All Movie Guide



----------------------------------------------------------------------------------------------------------------
File Info
----------------------------------------------------------------------------------------------------------------

----------------------------------------------------------------------------------------------------------------
General
----------------------------------------------------------------------------------------------------------------
Complete name : Bob the Builder Bobs White X-mas [Shadow] [H33t] [DivX] [Avi].avi
Format : AVI
Format/Info : Audio Video Interleave
File size : 495 MiB
Duration : 54mn 47s
Overall bit rate : 1 262 Kbps
Writing application : Lavf51.12.1

----------------------------------------------------------------------------------------------------------------
Video
----------------------------------------------------------------------------------------------------------------
Format : MPEG-4 Visual
Format profile : [email protected]
Format settings, BVOP : No
Format settings, QPel : No
Format settings, GMC : No warppoints
Format settings, Matrix : Default
Codec ID : DX50
Codec ID/Hint : DivX 5
Duration : 54mn 47s
Bit rate : 1 121 Kbps
Width : 720 pixels
Height : 480 pixels
Display aspect ratio : 1.500
Frame rate : 29.970 fps
Standard : NTSC
Resolution : 24 bits
Colorimetry : 4:2:0
Scan type : Progressive
Bits/(Pixel*Frame) : 0.108
Stream size : 439 MiB (89%)
Writing library : Lavc51.40.4

----------------------------------------------------------------------------------------------------------------
Audio
----------------------------------------------------------------------------------------------------------------
Format : MPEG Audio
Format version : Version 1
Format profile : Layer 3
Codec ID : 55
Codec ID/Hint : MP3
Duration : 54mn 47s
Bit rate mode : Constant
Bit rate : 128 Kbps
Channel(s) : 2 channels
Sampling rate : 48.0 KHz
Resolution : 16 bits
Stream size : 50.2 MiB (10%)
Alignment : Aligned on interleaves
Interleave, duration : 24 ms (0.72 video frame)
Interleave, preload duration : 24 ms






----------------------------------------------------------------------------------------------------------------
Files Included
----------------------------------------------------------------------------------------------------------------

Bob the Builder Bobs White X-mas [Shadow] [H33t] [DivX] [Avi].avi
btb1.jpg
btb2.png
tracked_by_h33t_com.txt
Bob the Builder Bobs White X-mas [Shadow] [H33t] [DivX] [Avi].txt

----------------------------------------------------------------------------------------------------------------
Personal Notes
----------------------------------------------------------------------------------------------------------------

Hope you and your kids enjoy :)

related torrents

Torrent name

health leech seeds Size
 


comments (0)

Main Menu