Horror

[IT]Kilometer 31 torrent

  • Download 5x Faster
  • Download torrent
  • Direct Download
  • Rate this torrent +  |  -
[IT]Kilometer 31 torrent

Free and Direct Download with Usenet 300GB+ free


Torrent info

Name:[IT]Kilometer 31 torrent

Total Size: 700.05 MB

Magnet: Magnet Link

Seeds: 0

Leechers: 0

Stream: Watch Online @ Movie4u

Last Updated: 2015-09-02 15:24:54 (Update Now)

Torrent added: 2009-08-28 07:13:13




Torrent Files List


Kilometer 31.avi (Size: 700.05 MB) (Files: 5)

 Kilometer 31.avi

700.03 MB

 42871.jpg

8.49 KB

 954495.jpg

5.68 KB

 info.txt

2.89 KB

 kilometer31.txt

2.24 KB
 

tracker

leech seeds
 

Torrent description

Beschreibung

Im Handel ab: 22.05.2008
Anbieter: e-m-s
Originaltitel: Kilmetro 31
Genre(s): Horror
Regie: Rigoberto Castaeda
Darsteller: Iliana Fox, Ral Mndez, Adri Collado, Mikel Mateos
FSK: 16
Laufzeit: ca. 101 min






Format : AVI
Format/Info : Audio Video Interleave
Dateigre : 700 MiB
Duration : 1h 40min
Gesamte Bitrate : 973 Kbps
Verwendetes Programm : VirtualDubMod 1.5.10.2 (build 2540/release)
verwendete Encoder-Bibliothek : VirtualDubMod build 2540/release

Video
Format : MPEG-4 Visual
Format profile : Streaming Video@L1
Format settings, BVOP : Ja
Format settings, QPel : Nein
Format settings, GMC : No warpoints
Format settings, Matrix : Default
Codec ID : XVID
Codec ID/Hint : XviD
Duration : 1h 40min
Bitrate : 838 Kbps
Breite : 640 Pixel
Höhe : 272 Pixel
Bildseitenverhältnis : 2.35
Bildwiederholungsrate : 25.000 FPS
Auflösung : 8 bits
Colorimetry : 4:2:0
Scan type : Progressive
Bits/(Pixel*Frame) : 0.193
Stream size : 603 MiB
verwendete Encoder-Bibliothek : XviD 1.1.2 (UTC 2006-11-01)

Audio
Format : MPEG Audio
Format version : Version 1
Format profile : Layer 3
Codec ID : 55
Codec ID/Hint : MP3
Duration : 1h 40min
Bitraten-Modus : Variable
Bitrate : 122 Kbps
Minimum bit rate : 128 Kbps
Kanäle : 2 Kanäle
Samplingrate : 48.0 KHz
Auflösung : 16 bits
Stream size : 87.7 MiB
verwendete Encoder-Bibliothek : LAME3.97b

related torrents

Torrent name

health leech seeds Size

Kilometer 31 DVD Rip

1 0 692.95 MB 0

Opios world Kilometer 31

0 0 700.00 MB 0
 

comments (0)

Main Menu