Electronic

Kharma Beats Flac Cue2 cdtntvillage scambioetico org

  • Download 5x Faster
  • Download torrent
  • Direct Download
  • Rate this torrent +  |  -
Kharma Beats Flac Cue2 cdtntvillage scambioetico org

Free and Direct Download with Usenet 300GB+ free


Torrent info

Name:Kharma Beats Flac Cue2 cdtntvillage scambioetico org

Total Size: 765.09 MB

Magnet: Magnet Link

Seeds: 1

Leechers: 2

Stream: Watch Online @ Movie4u

Last Updated: 2010-05-28 22:06:07 (Update Now)

Torrent added: 2008-08-08 12:41:26




Torrent Files List


Image0011.JPG (Size: 765.09 MB) (Files: 8)

 Image0011.JPG

789.43 KB

 Image0012.JPG

301.87 KB

 joy

  Kharma Beats Cd 1 - Joy - Kharma Beats.cue

1.61 KB

  Kharma Beats Cd 1 - Joy - Kharma Beats.flac

407.88 MB

  Kharma Beats.log

2.78 KB

 tranquility

  Kharma Beats Cd 2 - Tranquility - Kharma Beats.cue

1.75 KB

  Kharma Beats Cd 2 - Tranquility - Kharma Beats.flac

356.14 MB

  Kharma Beats.log

2.79 KB
 

Announce URL: http://tracker.tntvillage.scambioetico.org:2710/announce

Torrent description

Autore: artisti vari
Titolo:Kharma Beats
Anno: 2001
Genere: Electronic / Chillout
Etichetta:bar de lune
fonte cd /originale /cdda
Cover : Incluse

:::->Tracklist<-:::

Disc: 1
1. Rise - Craig Armstrong
2. Fingers - Joi
3. Bahatu - Declan Flynn
4. Pra Manha - Da Lata
5. Manana - Christoph Goze
6. Ramiro's Theme - Buscemi
7. Fleur Du Desert - Arnica Montana
8. Kirwani (Badmarsh And Shri Remix) - Jolly Mukherjee
9. Regiment - Brian Eno
10. Siya Dengelela Kgonyama (Roni Size Mix) - Sangomas
11. Desert Heat (Nitin Remix) - Nitin Singh
12. La Mujer De Terah (Ben's Alternate Wisch Mix) - Continuo


Disc: 2
1. Last Tango In Paris - Gotan Project
2. Slip Into Something More Comfortable - Kinobe
3. Aquarius - Waldeck
4. Sofa Rockers - Sofa Surfers
5. Terrapin - Bonobo
6. After The Rain - Shri
7. Soft Music Under The Stars - Fila Brazillia
8. Freedom (Fila Brazillia Remix) - DJ Food
9. Asian Lights - Tribal Lord
10. Purple (Air Mix) - Crustation
11. Shri Dunga (FunDaMental Organic Chill Mix) - DJ Cheb I Sabbah
12. Souka Nayu - Baabu Maal (Thievery Corporation Mix)

Exact Audio Copy V0.99 prebeta 3 from 28. July 2007

EAC extraction logfile from 5. February 2008, 13:16

Kharma Beats Cd 1 - joy / Kharma Beats

Used drive : _NEC DVD_RW ND-3550A Adapter: 5 ID: 0

Read mode : Secure
Utilize accurate stream : Yes
Defeat audio cache : Yes
Make use of C2 pointers : No

Read offset correction : 48
Overread into Lead-In and Lead-Out : No
Fill up missing offset samples with silence : Yes
Delete leading and trailing silent blocks : No
Null samples used in CRC calculations : No
Used interface : Installed external ASPI interface

Used output format : User Defined Encoder
Selected bitrate : 768 kBit/s
Quality : High
Add ID3 tag : No
Command line compressor : C:\Programmi\Exact Audio Copy\FLAC\FLAC.EXE
Additional command line options : -6 -V -T "ARTIST=%a" -T "TITLE=%t" -T "ALBUM=%g" -T "DATE=%y" -T "TRACKNUMBER=%n" -T "GENRE=%m" -T "COMMENT=%e" %s -o %d


TOC of the extracted CD

Track | Start | Length | Start sector | End sector
---------------------------------------------------------
1 | 0:00.00 | 5:10.50 | 0 | 23299
2 | 5:10.50 | 4:37.33 | 23300 | 44107
3 | 9:48.08 | 4:44.69 | 44108 | 65476
4 | 14:33.02 | 4:55.21 | 65477 | 87622
5 | 19:28.23 | 4:33.03 | 87623 | 108100
6 | 24:01.26 | 6:43.63 | 108101 | 138388
7 | 30:45.14 | 9:51.66 | 138389 | 182779
8 | 40:37.05 | 6:29.72 | 182780 | 212026
9 | 47:07.02 | 4:17.45 | 212027 | 231346
10 | 51:24.47 | 3:03.61 | 231347 | 245132
11 | 54:28.33 | 5:28.09 | 245133 | 269741
12 | 59:56.42 | 4:35.18 | 269742 | 290384


Range status and errors

Selected range

Filename D:\Documents and Settings\salvo.SN116508160310\Documenti\Kharma Beats Cd 2 - Tranquility - Kharma Beats.wav

Peak level 100.0 %
Range quality 100.0 %
Test CRC UR657RQ9
Copy CRC UR657RQ9
Copy OK

No errors occurred


AccurateRip summary

Track 1 not present in database
Track 2 not present in database
Track 3 not present in database
Track 4 not present in database
Track 5 not present in database
Track 6 not present in database
Track 7 not present in database
Track 8 not present in database
Track 9 not present in database
Track 10 not present in database
Track 11 not present in database
Track 12 not present in database

None of the tracks are present in the AccurateRip database

End of status report

-----------------------------------------------------------------------
Exact Audio Copy V0.99 prebeta 3 from 28. July 2007

EAC extraction logfile from 5. February 2008, 13:16

Kharma Beats Cd 2 - Tranquility / Kharma Beats

Used drive : _NEC DVD_RW ND-3550A Adapter: 5 ID: 0

Read mode : Secure
Utilize accurate stream : Yes
Defeat audio cache : Yes
Make use of C2 pointers : No

Read offset correction : 48
Overread into Lead-In and Lead-Out : No
Fill up missing offset samples with silence : Yes
Delete leading and trailing silent blocks : No
Null samples used in CRC calculations : No
Used interface : Installed external ASPI interface

Used output format : User Defined Encoder
Selected bitrate : 768 kBit/s
Quality : High
Add ID3 tag : No
Command line compressor : C:\Programmi\Exact Audio Copy\FLAC\FLAC.EXE
Additional command line options : -6 -V -T "ARTIST=%a" -T "TITLE=%t" -T "ALBUM=%g" -T "DATE=%y" -T "TRACKNUMBER=%n" -T "GENRE=%m" -T "COMMENT=%e" %s -o %d


TOC of the extracted CD

Track | Start | Length | Start sector | End sector
---------------------------------------------------------
1 | 0:00.00 | 5:10.50 | 0 | 23299
2 | 5:10.50 | 4:37.33 | 23300 | 44107
3 | 9:48.08 | 4:44.69 | 44108 | 65476
4 | 14:33.02 | 4:55.21 | 65477 | 87622
5 | 19:28.23 | 4:33.03 | 87623 | 108100
6 | 24:01.26 | 6:43.63 | 108101 | 138388
7 | 30:45.14 | 9:51.66 | 138389 | 182779
8 | 40:37.05 | 6:29.72 | 182780 | 212026
9 | 47:07.02 | 4:17.45 | 212027 | 231346
10 | 51:24.47 | 3:03.61 | 231347 | 245132
11 | 54:28.33 | 5:28.09 | 245133 | 269741
12 | 59:56.42 | 4:35.18 | 269742 | 290384


Range status and errors

Selected range

Filename D:\Documents and Settings\salvo.SN116508160310\Documenti\Kharma Beats Cd 2 - Tranquility - Kharma Beats.wav

Peak level 100.0 %
Range quality 100.0 %
Test CRC 5E716F05
Copy CRC 5E716F05
Copy OK

No errors occurred


AccurateRip summary

Track 1 not present in database
Track 2 not present in database
Track 3 not present in database
Track 4 not present in database
Track 5 not present in database
Track 6 not present in database
Track 7 not present in database
Track 8 not present in database
Track 9 not present in database
Track 10 not present in database
Track 11 not present in database
Track 12 not present in database

None of the tracks are present in the AccurateRip database

End of status report


related torrents

Torrent name

health leech seeds Size
 

comments (0)

Main Menu