Horror

WolfCreek[2005]{DvdRip Xvid}[1337x][blackjesus]

  • Download 5x Faster
  • Download torrent
  • Direct Download
  • Rate this torrent +  |  -
WolfCreek[2005]{DvdRip Xvid}[1337x][blackjesus]

Anonymous and Free Direct Download 300GB+


Torrent info

Name:WolfCreek[2005]{DvdRip Xvid}[1337x][blackjesus]

Total Size: 701.35 MB

Magnet: Magnet Link

Seeds: 6

Leechers: 4

Stream: Watch Online @ Movie4u

Last Updated: 2010-12-01 22:42:50 (Update Now)

Torrent added: 2009-08-28 06:38:59



VPN For Torrents

Torrent Files List


1337x.org.txt (Size: 701.35 MB) (Files: 4)

 1337x.org.txt

0.02 KB

 BlAcKjEsUs.txt

0.30 KB

 INFO.txt

3.26 KB

 Wolf Creek 2005.avi

701.35 MB
 

Announce URL: http://genesis.1337x.org:1337/announce

Torrent description

Wolfcreek(2005)







http://www.youtube.com/watch?v=CWKnmnK0M80
^^Trailer^^

http://www.imdb.com/title/tt0416315/
^^IMDB^^


Just when you thought it was safe to go hiking in the bushes again...along comes Mick Taylor. Kristy, Ben and Liz are three pals in their twenties who set out to hike through the scenic Wolf Creek National Park in the Australian Outback. The trouble begins when they get back only to find that their car won't start. The trio think they have a way out when they run into a local bushman named Mick Taylor. Wait until you get a load of what Mick has in store for them. Their troubles have just begun.


Release Date: :16 September 2005 (UK) more
Genre: :Adventure | Crime | Horror | Thriller
Tagline: :Based on true events

Format : AVI
Format/Info : Audio Video Interleave
File size : 701 MiB
Duration : 1h 34mn
Overall bit rate : 1 035 Kbps
Writing library : VirtualDub build 31536/release

Video
Format : MPEG-4 Visual
Format profile : Streaming [email protected]
Format settings, BVOP : Yes
Format settings, QPel : No
Format settings, GMC : No warppoints
Format settings, Matrix : Default (H.263)
Muxing mode : Packed bitstream
Codec ID : XVID
Codec ID/Hint : XviD
Duration : 1h 34mn
Bit rate : 895 Kbps
Width : 720 pixels
Height : 384 pixels
Display aspect ratio : 1.875
Frame rate : 25.000 fps
Resolution : 24 bits
Colorimetry : 4:2:0
Scan type : Progressive
Bits/(Pixel*Frame) : 0.129
Stream size : 606 MiB (86%)
Writing library : XviD 1.2.1 (UTC 2008-12-04)

Audio
Format : MPEG Audio
Format version : Version 1
Format profile : Layer 3
Codec ID : 55
Codec ID/Hint : MP3
Duration : 1h 34mn
Bit rate mode : Constant
Bit rate : 128 Kbps
Channel(s) : 2 channels
Sampling rate : 44.1 KHz
Resolution : 16 bits
Stream size : 86.7 MiB (12%)
Alignment : Aligned on interleaves
Interleave, duration : 26 ms (0.65 video frame)
Interleave, preload duration : 522 ms




related torrents

Torrent name

health leech seeds Size
 


comments (0)

Main Menu