Horror

Witchmaster General 2009 DVDRip XviD AC3 HEAVEN

  • Download 5x Faster
  • Download torrent
  • Direct Download
  • Rate this torrent +  |  -
Witchmaster General 2009 DVDRip XviD AC3 HEAVEN

Free and Direct Download with Usenet 300GB+ free


Torrent info

Name:Witchmaster General 2009 DVDRip XviD AC3 HEAVEN

Total Size: 698.11 MB

Magnet: Magnet Link

Seeds: 12

Leechers: 12

Stream: Watch Online @ Movie4u

Last Updated: 2010-10-03 21:12:49 (Update Now)

Torrent added: 2009-08-28 06:36:20




Torrent Files List


Witchmaster.General.DVDRip.XviD.AC3-2009.HEAVEN.avi (Size: 698.11 MB) (Files: 3)

 Witchmaster.General.DVDRip.XviD.AC3-2009.HEAVEN.avi

698.09 MB

 Witchmaster.General.DVDRip.XviD.AC3-2009.HEAVEN.NFO

3.54 KB

 Witchmaster.General.DVDRip.XviD.AC3-2009.HEAVEN.sfv

8.33 KB
 

Announce URL: http://tracker.thepiratebay.org/announce

Torrent description

Witchmaster General 2009 DVDRip XviD AC3-HEAVEN
Format : AVI
Format/Info : Audio Video Interleave
File size : 698 MiB
Duration : 1h 33mn
Overall bit rate : 1 045 Kbps

Video
Format : MPEG-4 Visual
Format profile : Streaming [email protected]
Format settings, BVOP : Yes
Format settings, QPel : No
Format settings, GMC : No warppoints
Format settings, Matrix : Default (MPEG)
Muxing mode : Packed bitstream
Codec ID : XVID
Codec ID/Hint : XviD
Duration : 1h 33mn
Bit rate : 841 Kbps
Width : 544 pixels
Height : 304 pixels
Display aspect ratio : 16/9
Frame rate : 29.970 fps
Resolution : 24 bits
Colorimetry : 4:2:0
Scan type : Progressive
Bits/(Pixel*Frame) : 0.170
Stream size : 562 MiB (80%)
Writing library : XviD 1.2.0.dev47 (UTC 2006-11-01)

Audio
Format : AC-3
Format/Info : Audio Coding 3
Codec ID : 2000
Duration : 1h 33mn
Bit rate mode : Constant
Bit rate : 192 Kbps
Channel(s) : 2 channels
Channel positions : L R
Sampling rate : 48.0 KHz
Stream size : 128 MiB (18%)
Alignment : Split accross interleaves
Interleave, duration : 33 ms (1.00 video frame)
Interleave, preload duration : 500 ms

related torrents

Torrent name

health leech seeds Size
 

comments (0)

Main Menu