Horror

Walled In AC3 5,1 DVDRip[Eng]2009

  • Download 5x Faster
  • Download torrent
  • Direct Download
  • Rate this torrent +  |  -
Walled In AC3 5,1 DVDRip[Eng]2009

Free and Direct Download with Usenet.nl 300GB+ free


Torrent info

Name:Walled In AC3 5,1 DVDRip[Eng]2009

Total Size: 1.37 GB

Magnet: Magnet Link

Seeds: 0

Leechers: 0

Stream: Watch Online @ Movie4u

Last Updated: 2010-11-17 11:00:28 (Update Now)

Torrent added: 2009-08-28 06:22:45





Torrent Files List


Torrent downloaded from Demonoid.com.txt (Size: 1.37 GB) (Files: 3)

 Torrent downloaded from Demonoid.com.txt

0.05 KB

 Walled In-AC3-5,1-DVDRip[Eng]2009.avi

1.37 GB

 Walled In-AC3-5,1-DVDRip[Eng]2009.nfo

3.18 KB
 

Announce URL: http://inferno.demonoid.com:3408/announce

Torrent description

http://www.imdb.com/title/tt1104006/

User Rating:5.1/10 - 251 votes

Horror/Thriller

Director:Gilles Paquet-Brenner

Cast:Mischa Barton/Darla Biccum/Cameron Bright/Shannon Jardine and others.

Plot:
A young woman who recently graduated from engineering school travels to a remote location to supervise the
demolition of a mysterious building. She soon discovers the horrifying secrets of the building and its past
inhabitants, many of whom were victims of a vicious murderer who entombed his prey alive within its walls.
Now she must turn the tables on the killer before she becomes his latest victim....

Info:

Video
Format : MPEG-4 Visual
Format profile : Streaming [email protected]
Format settings, BVOP : No
Format settings, QPel : No
Format settings, GMC : No warppoints
Format settings, Matrix : Custom
Codec ID : XVID
Codec ID/Hint : XviD
Duration : 1h 31mn
Bit rate : 1 684 Kbps
Width : 720 pixels
Height : 416 pixels
Display aspect ratio : 16/9
Frame rate : 23.976 fps
Resolution : 24 bits
Colorimetry : 4:2:0
Scan type : Progressive
Bits/(Pixel*Frame) : 0.235
Stream size : 1.08 GiB (79%)
Writing library : XviD 50

Audio
Format : AC-3
Format/Info : Audio Coding 3
Codec ID : 2000
Bit rate mode : Constant
Bit rate : 448 Kbps
Channel(s) : 6 channels
Channel positions : Front: L C R, Surround: L R, LFE
Sampling rate : 48.0 KHz
Stream size : 293 MiB (21%)
Alignment : Aligned on interleaves
Interleave, duration : 64 ms (1.53 video frames)
Interleave, preload duration : 1024 ms

Enjoy...

related torrents

Torrent name

health leech seeds Size
 

comments (0)

Main Menu