Pop

Francesco De Gregori Le Origini [Eac Flac Cue]colombo bt org

  • Download 5x Faster
  • Download torrent
  • Direct Download
  • Rate this torrent +  |  -
Francesco De Gregori Le Origini [Eac Flac Cue]colombo bt org

Anonymous and Free Direct Download 300GB+


Torrent info

Name:Francesco De Gregori Le Origini [Eac Flac Cue]colombo bt org

Total Size: 434.75 MB

Magnet: Magnet Link

Seeds: 0

Leechers: 0

Stream: Watch Online @ Movie4u

Last Updated: 2017-06-29 20:24:34 (Update Now)

Torrent added: 2009-08-28 06:20:11



VPN For Torrents

Torrent Files List


Francesco De Gregori - Le Origini - Back.jpg (Size: 434.75 MB) (Files: 5)

 Francesco De Gregori - Le Origini - Back.jpg

123.46 KB

 Francesco De Gregori - Le Origini - Front.jpg

84.10 KB

 Francesco De Gregori - Le origini.cue

2.24 KB

 Francesco De Gregori - Le origini.flac

434.54 MB

 Le origini.log

3.91 KB
 

Announce URL:

Torrent description

La donna cannone - 4:41
Rimmel - 3:42
Generale - 4:22
Piccola mela - 2:46
La leva calcistica della classe '68 - 4:20
Quattro cani - 3:18
Festival - 4:33
Caterina - 4:02
Pablo - 4:24
Alice - 3:46
Natale - 2:36
Pezzi di vetro - 3:09
Renoir - 2:38
Piano bar - 2:44
Titanic - 4:21
Due zingari - 4:18
I muscoli del capitano - 4:01
Raggio di sole - 3:09
Viva l'Italia - 3:49
Buonanotte fiorellino - 2:04


Exact Audio Copy V0.99 prebeta 3 from 28. July 2007

EAC extraction logfile from 12. April 2008, 11:19

Francesco De Gregori / Le origini

Used drive : _NEC DVD_RW ND-3550A Adapter: 5 ID: 0

Read mode : Secure
Utilize accurate stream : Yes
Defeat audio cache : Yes
Make use of C2 pointers : No

Read offset correction : 48
Overread into Lead-In and Lead-Out : No
Fill up missing offset samples with silence : Yes
Delete leading and trailing silent blocks : No
Null samples used in CRC calculations : No
Used interface : Installed external ASPI interface

Used output format : User Defined Encoder
Selected bitrate : 768 kBit/s
Quality : High
Add ID3 tag : No
Command line compressor : C:\Programmi\Exact Audio Copy\FLAC\FLAC.EXE
Additional command line options : -6 -V -T "ARTIST=%a" -T "TITLE=%t" -T "ALBUM=%g" -T "DATE=%y" -T "TRACKNUMBER=%n" -T "GENRE=%m" -T "COMMENT=%e" %s -o %d


TOC of the extracted CD

Track | Start | Length | Start sector | End sector
---------------------------------------------------------
1 | 0:00.00 | 4:40.69 | 0 | 21068
2 | 4:40.69 | 3:41.38 | 21069 | 37681
3 | 8:22.32 | 4:21.58 | 37682 | 57314
4 | 12:44.15 | 2:46.30 | 57315 | 69794
5 | 15:30.45 | 4:19.45 | 69795 | 89264
6 | 19:50.15 | 3:17.45 | 89265 | 104084
7 | 23:07.60 | 4:32.69 | 104085 | 124553
8 | 27:40.54 | 4:01.38 | 124554 | 142666
9 | 31:42.17 | 4:24.05 | 142667 | 162471
10 | 36:06.22 | 3:45.65 | 162472 | 179411
11 | 39:52.12 | 2:36.05 | 179412 | 191116
12 | 42:28.17 | 3:09.17 | 191117 | 205308
13 | 45:37.34 | 2:37.53 | 205309 | 217136
14 | 48:15.12 | 2:43.55 | 217137 | 229416
15 | 50:58.67 | 4:21.25 | 229417 | 249016
16 | 55:20.17 | 4:18.08 | 249017 | 268374
17 | 59:38.25 | 4:01.35 | 268375 | 286484
18 | 63:39.60 | 3:08.42 | 286485 | 300626
19 | 66:48.27 | 3:49.30 | 300627 | 317831
20 | 70:37.57 | 2:04.50 | 317832 | 327181


Range status and errors

Selected range

Filename D:\Documents and Settings\salvo.SN116508160310\Documenti\Francesco De Gregori - Le origini.wav

Peak level 98.3 %
Range quality 99.9 %
Test CRC 8298F735
Copy CRC 8298F735
Copy OK

No errors occurred


AccurateRip summary

Track 1 accurately ripped (confidence 3) [DDFE14ED]
Track 2 accurately ripped (confidence 2) [8D7AC984]
Track 3 accurately ripped (confidence 2) [F3195A20]
Track 4 accurately ripped (confidence 2) [62B1A453]
Track 5 accurately ripped (confidence 2) [D879AA25]
Track 6 accurately ripped (confidence 2) [E9E6946F]
Track 7 accurately ripped (confidence 2) [A32B1A3E]
Track 8 accurately ripped (confidence 2) [9D26EA7D]
Track 9 accurately ripped (confidence 2) [E4F151F3]
Track 10 accurately ripped (confidence 2) [A90726B8]
Track 11 accurately ripped (confidence 2) [6A6343D1]
Track 12 accurately ripped (confidence 2) [18AD9864]
Track 13 accurately ripped (confidence 2) [F5929BB6]
Track 14 accurately ripped (confidence 2) [6A5EBC91]
Track 15 accurately ripped (confidence 2) [29FC251A]
Track 16 accurately ripped (confidence 2) [02978913]
Track 17 accurately ripped (confidence 2) [A98521FB]
Track 18 accurately ripped (confidence 2) [61AD7C12]
Track 19 accurately ripped (confidence 2) [AD65B87D]
Track 20 accurately ripped (confidence 2) [F0C46BD2]

All tracks accurately ripped

End of status report




Titolo: Le Origini
Anno: 1996
Genere: pop
Formato: Flac
Fonte : Originale
Covers Incluse

related torrents

Torrent name

health leech seeds Size
 


comments (0)

Main Menu