Horror

The Descent 2005 DVDRIP ZEKTORM

  • Download 5x Faster
  • Download torrent
  • Direct Download
  • Rate this torrent +  |  -
The Descent 2005 DVDRIP ZEKTORM

Free and Direct Download with Usenet.nl 300GB+ free


Torrent info

Name:The Descent 2005 DVDRIP ZEKTORM

Total Size: 708.24 MB

Magnet: Magnet Link

Seeds: 0

Leechers: 0

Stream: Watch Online @ Movie4u

Last Updated: 2010-09-22 10:41:00 (Update Now)

Torrent added: 2009-08-28 05:35:34





Torrent Files List


READ.hlp (Size: 708.24 MB) (Files: 4)

 READ.hlp

12.79 KB

 Subs

  The.Descent.2005.DVDRIP-ZEKTORM.idx

116.39 KB

  The.Descent.2005.DVDRIP-ZEKTORM.sub

8.24 MB

 The.Descent.2005.DVDRIP-ZEKTORM.mp4

699.87 MB
 

Announce URL: http://eztv.tracker.thepiratebay.org:80/announce

Torrent description

Title : The Descent
Year : 2005
Genre : Adventure | Horror | Thriller
iMDB Rate : User Rating: 7.4/10 44,011 votes
iMDB URL : http://www.imdb.com/title/tt0435625/
Awards : 7 wins & 10 nominations

Complete name : The.Descent.2005.DVDRIP-ZEKTORM.mp4
Format : MPEG-4
Format profile : Base Media
Codec ID : isom
File size : 700 MiB
Duration : 1h 39mn
Overall bit rate : 980 Kbps
Subtitles : English, Spanish (Format: VobSub)
Source : DVD NTSC
Encoded date : UTC 2009-01-18 12:47:20

Video
Format : AVC
Format/Info : Advanced Video Codec
Format profile : [email protected]
Format settings, CABAC : Yes
Format settings, ReFrames : 10 frames
Codec ID : avc1
Codec ID/Info : Advanced Video Coding
Duration : 1h 39mn
Bit rate mode : Variable
Bit rate : 885 Kbps
Maximum bit rate : 5489 Kbps
Width : 704 pixels
Height : 368 pixels
Display aspect ratio : 2.35
Frame rate mode : Constant
Frame rate : 23.976 fps
Resolution : 24 bits
Colorimetry : 4:2:0
Scan type : Progressive
Bits/(Pixel*Frame) : 0.142
Stream size : 632 MiB (90%)
Title : Video
Writing library : x264 core 60 r900 a9af942

Audio
Format : AAC
Format/Info : Advanced Audio Codec
Format version : Version 4
Format profile : LC
Format settings, SBR : Yes
Format settings, PS : No
Codec ID : 40
Duration : 1h 39mn
Bit rate mode : Variable
Bit rate : 83.9 Kbps
Maximum bit rate : 117 Kbps
Channel(s) : 2 channels
Channel positions : L R
Sampling rate : 48.0 KHz
Resolution : 16 bits
Stream size : 59.9 MiB (9%)
Title : English
Language : English

Notes : Convert to DVD with Nero

related torrents

Torrent name

health leech seeds Size
 

comments (0)

Main Menu