Horror

The Witches Hammer DVDrip Eng Xvid MP3 M333

  • Download 5x Faster
  • Download torrent
  • Direct Download
  • Rate this torrent +  |  -
The Witches Hammer DVDrip Eng Xvid MP3 M333

Free and Direct Download with Usenet 300GB+ free


Torrent info

Name:The Witches Hammer DVDrip Eng Xvid MP3 M333

Total Size: 699.49 MB

Magnet: Magnet Link

Seeds: 0

Leechers: 0

Stream: Watch Online @ Movie4u

Last Updated: 2015-08-31 15:59:17 (Update Now)

Torrent added: 2009-08-28 05:31:34




Torrent Files List


NFO.txt (Size: 699.49 MB) (Files: 4)

 NFO.txt

1.95 KB

 The Wiches Hammer.jpg

30.36 KB

 The.Witches.Hammer.DVDrip.Eng.Xvid.MP3.M333.avi

699.46 MB

 tracked_by_h33t_com.txt

0.02 KB
 

tracker

leech seeds
 

Torrent description

General
Complete name : The.Witches.Hammer.DVDrip.Eng.Xvid.MP3.M333.avi
Format : AVI
Format/Info : Audio Video Interleave
File size : 699 MiB
Duration : 1h 31mn
Overal bit rate : 1070 Kbps
Writing application : Nandub v1.0rc2
Writing library : Nandub build 1852/release

Video
Format : MPEG-4 Visual
Format profile : Streaming [email protected]
Format settings, BVOP : Yes
Format settings, QPel : No
Format settings, GMC : No warppoints
Format settings, Matrix : Default
Codec ID : XVID
Codec ID/Hint : XviD
Duration : 1h 31mn
Bit rate : 937 Kbps
Width : 640 pixels
Height : 352 pixels
Display aspect ratio : 16/9
Frame rate : 25.000 fps
Resolution : 8 bits
Colorimetry : 4:2:0
Scan type : Progressive
Bits/(Pixel*Frame) : 0.166
Stream size : 612 MiB
Writing library : XviD 1.1.2 (UTC 2006-11-01)

Audio
Format : MPEG Audio
Format version : Version 1
Format profile : Layer 3
Codec ID : 55
Codec ID/Hint : MP3
Duration : 1h 31mn
Bit rate mode : Variable
Bit rate : 120 Kbps
Channel(s) : 2 channels
Sampling rate : 48.0 KHz
Resolution : 16 bits
Video delay : 8ms
Stream size : 78.6 MiB

Imdb http://www.imdb.com/title/tt0400944/

related torrents

Torrent name

health leech seeds Size

THE WITCHES HAMMER

0 0 699.46 MB 0

The Witches Hammer (2006)

0 0 699.46 MB 0
 

comments (0)

Main Menu