Horror

The Wickeds 2004 DVDRip XviD org

  • Download 5x Faster
  • Download torrent
  • Direct Download
  • Rate this torrent +  |  -
The Wickeds 2004 DVDRip XviD org

Free and Direct Download with Usenet.nl 300GB+ free


Torrent info

Name:The Wickeds 2004 DVDRip XviD org

Total Size: 699.58 MB

Magnet: Magnet Link

Seeds: 0

Leechers: 0

Stream: Watch Online @ Movie4u

Last Updated: 2016-02-24 01:48:14 (Update Now)

Torrent added: 2009-08-28 05:30:11





Torrent Files List


The.Wickeds.2004.DVDRip.XviD.avi (Size: 699.58 MB) (Files: 2)

 The.Wickeds.2004.DVDRip.XviD.avi

699.57 MB

 The.Wickeds.2004.DVDRip.XviD.nfo

4.37 KB
 

tracker

leech seeds
 

Torrent description

~ Seedmore ~

Hi m8! Were you thinking about joining a private tracker, well what are you waiting for!! we are a Italian Mob theme website with a new twist ;)
we are focused on fast uploads, new content, and above all: user security ;)
are you also tired of malware and Hit & Runners,:(
Are you an experienced uploader Huh, See forums for how to apply.
well what are you waiting for doors will not be open for long so start typing to join: http://tinyurl.com/seedmore NOW!!!!!!

I want to see you at Seedmore.org :)


The Wickeds (2005)



Director:John Poague

Writeravid Zagorski (screenplay)

Release Date:4 July 2005 (USA) more

Genre:Horror



Plot:It started off as the ultimate way to spend Halloween. Seven teenagers travel to an old, decrepit house...



CAST:

Ron Jeremy ... Gus

Justin Alvarez ... Jake



Anna Bridgforth ... Julie

Kelly Sue Roth ... Alyssa (as Kelly Roth)

Bradford Sikes ... Bailey

Bryan Donoghue ... Billy



J. Matthew Miller ... Dylan

Michael T. Schneider ... Teufel



IMDB http://www.imdb.com/title/tt0448177/





QUALITY:

General

Complete name : C:\downloaded\The.Wickeds.2004.DVDRip.XviD\The.Wickeds.2004.DVDRip.XviD.avi

Format : AVI

Format/Info : Audio Video Interleave

File size : 700 MiB

Duration : 1h 26mn

Overall bit rate : 1 134 Kbps

Writing library : VirtualDub build 30091/release

Copyright : Ripped By KooKoo

Comment : KooKoo-Cachoo-Fuck-You



Video

Format : MPEG-4 Visual

Format profile : Streaming [email protected]

Format settings, BVOP : Yes

Format settings, QPel : No

Format settings, GMC : No warppoints

Format settings, Matrix : Default

Muxing mode : Packed bitstream

Codec ID : XVID

Codec ID/Hint : XviD

Duration : 1h 26mn

Bit rate : 997 Kbps

Width : 624 pixels

Height : 368 pixels

Display aspect ratio : 1.696

Frame rate : 23.976 fps

Resolution : 24 bits

Colorimetry : 4:2:0

Scan type : Progressive

Bits/(Pixel*Frame) : 0.181

Stream size : 615 MiB (88%)

Writing library : XviD 1.2.1 (UTC 2008-12-04)



Audio

Format : MPEG Audio

Format version : Version 1

Format profile : Layer 3

Codec ID : 55

Codec ID/Hint : MP3

Duration : 1h 26mn

Bit rate mode : Variable

Bit rate : 124 Kbps

Channel(s) : 2 channels

Sampling rate : 48.0 KHz

Resolution : 16 bits

Stream size : 76.5 MiB (11%)

Alignment : Aligned on interleaves

Interleave, duration : 24 ms (0.58 video frame)

Interleave, preload duration : 179 ms


related torrents

Torrent name

health leech seeds Size
 

comments (0)

Main Menu