Horror

The Whip And The Body (1963) UNCUT (DVDRip) KooKoo [1337x]

  • Download 5x Faster
  • Download torrent
  • Direct Download
  • Rate this torrent +  |  -
The Whip And The Body (1963) UNCUT (DVDRip) KooKoo [1337x]

Free and Direct Download with Usenet 300GB+ free


Torrent info

Name:The Whip And The Body (1963) UNCUT (DVDRip) KooKoo [1337x]

Total Size: 922.48 MB

Magnet: Magnet Link

Seeds: 0

Leechers: 0

Stream: Watch Online @ Movie4u

Last Updated: 2015-10-17 06:58:06 (Update Now)

Torrent added: 2009-08-28 05:30:00




Torrent Files List


1337x.org.txt (Size: 922.48 MB) (Files: 3)

 1337x.org.txt

0.02 KB

 KooKoo.nfo

6.77 KB

 The Whip And The Body (1963) UNCUT (DVDRip) KooKoo.avi

922.47 MB
 

tracker

leech seeds
 

Torrent description

@@@ @@@ @@@@@@ @@@@@@ @@@ @@@ @@@@@@ @@@@@@
@@@ @@@ @@@@@@@@ @@@@@@@@ @@@ @@@ @@@@@@@@ @@@@@@@@
@@! !@@ @@! @@@ @@! @@@ @@! !@@ @@! @@@ @@! @@@
!@! @!! !@! @!@ !@! @!@ !@! @!! !@! @!@ !@! @!@
@!@@!@! @!@ !@! @!@ !@! @!@@!@! @!@ !@! @!@ !@!
!!@!!! !@! !!! !@! !!! !!@!!! !@! !!! !@! !!!
!!: :!! !!: !!! !!: !!! !!: :!! !!: !!! !!: !!!
:!: !:! :!: !:! :!: !:! :!: !:! :!: !:! :!: !:!
:!: ::: ::::: :: ::::: :: :!: ::: ::::: :: ::::: ::
:!: ::: : : : : : : :!: ::: : : : : : :
:: ::





___ _ ___ _
/ __|___ _ _ ___ _ _ __ _| | | __(_) |_ __
| (_ / -_) ' / -_) '_/ _` | | | _|| | | '
\___\___|_||_\___|_| \__,_|_| |_| |_|_|_|_|_|

___ __ _ _
|_ _|_ _ / _|___ _ _ _ __ __ _| |_(_)___ _ _
| || ' | _/ _ '_| ' / _` | _| / _ '
|___|_||_|_| \___/_| |_|_|_\__,_|\__|_\___/_||_|

Movie Name: The Whip And The Body
Genre: Horror
Release Date: 1963
Country: Italy
Certification: NR
IMDB Link: http://www.imdb.com/title/tt0057078/



___ _
/ __|_ _ _ _ ___ _ __ __(_)___
\__ || | ' / _ '_ (_-< (_-<
|___/\_, |_||_\___/ .__/__/_/__/
|__/ |_|
"Part whodunit, part ghost story, and one of the most deliriously romantic
horror pictures ever made."-Tim Lucas, VIDEO WATCHDOG

Nevenka's ex-lover, who is her husband's brother, Kurt, has come back
to claim her and he does so by engaging in a forbidden rendezvous.
The next day Kurt is found dead, but his ghost comes back to haunt
all those who live in the mansion, and to continue his love affair with








___ ___ __ _ _
| _ (_)_ __ |_ _|_ _ / _|___ _ _ _ __ __ _| |_(_)___ _ _
| / | '_ | || ' | _/ _ '_| ' / _` | _| / _ '
|_|_\_| .__/ |___|_||_|_| \___/_| |_|_|_\__,_|\__|_\___/_||_|
|_|

Format : AVI
Format/Info : Audio Video Interleave
File size : 922 MiB
Duration : 1h 23mn
Overall bit rate : 1546 Kbps
Writing application : VirtualDubMod 1.5.10.2 (build 2540/release)
Writing library : VirtualDubMod build 2540/release
Copyright : Ripped by KooKoo

Video
Format : MPEG-4 Visual
Format profile : Streaming Video@L1
Format settings, BVOP : Yes
Format settings, QPel : No
Format settings, GMC : No warppoints
Format settings, Matrix : Default
Muxing mode : Packet Bitstream
Codec ID : XVID
Codec ID/Hint : XviD
Duration : 1h 23mn
Bit rate : 1275 Kbps
Width : 656 pixels
Height : 336 pixels
Display aspect ratio : 1.952
Frame rate : 25.000 fps
Resolution : 8 bits
Colorimetry : 4:2:0
Scan type : Progressive
Bits/(Pixel*Frame) : 0.231
Stream size : 761 MiB (83%)
Writing library : XviD 1.2.0.dev47 (UTC 2006-11-01)

Audio #1
Format : MPEG Audio
Format version : Version 1
Format profile : Layer 3
Codec ID : 55
Codec ID/Hint : MP3
Duration : 1h 23mn
Bit rate mode : Constant
Bit rate : 128 Kbps
Minimum bit rate : 128 Kbps
Channel(s) : 2 channels
Sampling rate : 48.0 KHz
Resolution : 16 bits
Stream size : 76.4 MiB (8%)
Alignment : Aligned on interleaves
Interleave, duration : 40 ms (1.00 video frame)
Interleave, preload duration : 504 ms
Writing library : LAME3.97
Encoding settings : CBR

Audio #2
Format : MPEG Audio
Format version : Version 1
Format profile : Layer 3
Codec ID : 55
Codec ID/Hint : MP3
Duration : 1h 23mn
Bit rate mode : Constant
Bit rate : 128 Kbps
Minimum bit rate : 128 Kbps
Channel(s) : 2 channels
Sampling rate : 48.0 KHz
Resolution : 16 bits
Stream size : 76.4 MiB (8%)
Alignment : Aligned on interleaves
Interleave, duration : 40 ms (1.00 video frame)
Interleave, preload duration : 504 ms
Writing library : LAME3.97
Encoding settings : CBR


_ _ _ _ _ _ _ _ _ _
/_ __| |__| (_) |_(_)___ _ _ __ _| | | | |___| |_ ___ ___
/ _ / _` / _` | | _| / _ ' / _` | | | .` / _ _/ -_|_-<
/_/ \_\__,_\__,_|_|\__|_\___/_||_\__,_|_| |_|\_\___/\__\___/__/

This ripped from the German European version PAL DVD.
This rip contains 2 audio tracks, English and Italian.
This rip is FULLY UNCUT!



R.I.P Date: 9/22/08

The Whip And The Body (1963) UNCUT (DVDRip) KooKoo


_ _________________ __
/ |___ /___ /___ / / ___ _ __ __ _ 1337x.org
| | |_ |_ / / / / _ | '__/ _` |
| |___) |__) |/ / / | (_) | | | (_| |
|_|____/____//_/ /_/\_(_)___/|_| \__, |
|___/
Don't forget to visit! Come hang out with me in the chat!

related torrents

Torrent name

health leech seeds Size

The Whip And The Body avi

0 0 545.00 MB 0
 

comments (0)

Main Menu