Horror

The Thing 1982 DvDRiP Eng Stealthmaster [

  • Download 5x Faster
  • Download torrent
  • Direct Download
  • Rate this torrent +  |  -
The Thing 1982 DvDRiP Eng Stealthmaster [

Anonymous and Free Direct Download 300GB+


Torrent info

Name:The Thing 1982 DvDRiP Eng Stealthmaster [

Total Size: 695.22 MB

Magnet: Magnet Link

Seeds: 0

Leechers: 0

Stream: Watch Online @ Movie4u

Last Updated: 2014-07-16 08:59:29 (Update Now)

Torrent added: 2009-08-28 05:16:27



VPN For Torrents

Torrent Files List


lol.nfo (Size: 695.22 MB) (Files: 51)

 lol.nfo

3.93 KB

 lol.sfv

7.47 KB

 The.Thing.1982.DvDRiP.Eng-Stealthmaster (HHM 08).r00

14.31 MB

 The.Thing.1982.DvDRiP.Eng-Stealthmaster (HHM 08).r01

14.31 MB

 The.Thing.1982.DvDRiP.Eng-Stealthmaster (HHM 08).r02

14.31 MB

 The.Thing.1982.DvDRiP.Eng-Stealthmaster (HHM 08).r03

14.31 MB

 The.Thing.1982.DvDRiP.Eng-Stealthmaster (HHM 08).r04

14.31 MB

 The.Thing.1982.DvDRiP.Eng-Stealthmaster (HHM 08).r05

14.31 MB

 The.Thing.1982.DvDRiP.Eng-Stealthmaster (HHM 08).r06

14.31 MB

 The.Thing.1982.DvDRiP.Eng-Stealthmaster (HHM 08).r07

14.31 MB

 The.Thing.1982.DvDRiP.Eng-Stealthmaster (HHM 08).r08

14.31 MB

 The.Thing.1982.DvDRiP.Eng-Stealthmaster (HHM 08).r09

14.31 MB

 The.Thing.1982.DvDRiP.Eng-Stealthmaster (HHM 08).r10

14.31 MB

 The.Thing.1982.DvDRiP.Eng-Stealthmaster (HHM 08).r11

14.31 MB

 The.Thing.1982.DvDRiP.Eng-Stealthmaster (HHM 08).r12

14.31 MB

 The.Thing.1982.DvDRiP.Eng-Stealthmaster (HHM 08).r13

14.31 MB

 The.Thing.1982.DvDRiP.Eng-Stealthmaster (HHM 08).r14

14.31 MB

 The.Thing.1982.DvDRiP.Eng-Stealthmaster (HHM 08).r15

14.31 MB

 The.Thing.1982.DvDRiP.Eng-Stealthmaster (HHM 08).r16

14.31 MB

 The.Thing.1982.DvDRiP.Eng-Stealthmaster (HHM 08).r17

14.31 MB

 The.Thing.1982.DvDRiP.Eng-Stealthmaster (HHM 08).r18

14.31 MB

 The.Thing.1982.DvDRiP.Eng-Stealthmaster (HHM 08).r19

14.31 MB

 The.Thing.1982.DvDRiP.Eng-Stealthmaster (HHM 08).r20

14.31 MB

 The.Thing.1982.DvDRiP.Eng-Stealthmaster (HHM 08).r21

14.31 MB

 The.Thing.1982.DvDRiP.Eng-Stealthmaster (HHM 08).r22

14.31 MB

 The.Thing.1982.DvDRiP.Eng-Stealthmaster (HHM 08).r23

14.31 MB

 The.Thing.1982.DvDRiP.Eng-Stealthmaster (HHM 08).r24

14.31 MB

 The.Thing.1982.DvDRiP.Eng-Stealthmaster (HHM 08).r25

14.31 MB

 The.Thing.1982.DvDRiP.Eng-Stealthmaster (HHM 08).r26

14.31 MB

 The.Thing.1982.DvDRiP.Eng-Stealthmaster (HHM 08).r27

14.31 MB

 The.Thing.1982.DvDRiP.Eng-Stealthmaster (HHM 08).r28

14.31 MB

 The.Thing.1982.DvDRiP.Eng-Stealthmaster (HHM 08).r29

14.31 MB

 The.Thing.1982.DvDRiP.Eng-Stealthmaster (HHM 08).r30

14.31 MB

 The.Thing.1982.DvDRiP.Eng-Stealthmaster (HHM 08).r31

14.31 MB

 The.Thing.1982.DvDRiP.Eng-Stealthmaster (HHM 08).r32

14.31 MB

 The.Thing.1982.DvDRiP.Eng-Stealthmaster (HHM 08).r33

14.31 MB

 The.Thing.1982.DvDRiP.Eng-Stealthmaster (HHM 08).r34

14.31 MB

 The.Thing.1982.DvDRiP.Eng-Stealthmaster (HHM 08).r35

14.31 MB

 The.Thing.1982.DvDRiP.Eng-Stealthmaster (HHM 08).r36

14.31 MB

 The.Thing.1982.DvDRiP.Eng-Stealthmaster (HHM 08).r37

14.31 MB

 The.Thing.1982.DvDRiP.Eng-Stealthmaster (HHM 08).r38

14.31 MB

 The.Thing.1982.DvDRiP.Eng-Stealthmaster (HHM 08).r39

14.31 MB

 The.Thing.1982.DvDRiP.Eng-Stealthmaster (HHM 08).r40

14.31 MB

 The.Thing.1982.DvDRiP.Eng-Stealthmaster (HHM 08).r41

14.31 MB

 The.Thing.1982.DvDRiP.Eng-Stealthmaster (HHM 08).r42

14.31 MB

 The.Thing.1982.DvDRiP.Eng-Stealthmaster (HHM 08).r43

14.31 MB

 The.Thing.1982.DvDRiP.Eng-Stealthmaster (HHM 08).r44

14.31 MB

 The.Thing.1982.DvDRiP.Eng-Stealthmaster (HHM 08).r45

14.31 MB

 The.Thing.1982.DvDRiP.Eng-Stealthmaster (HHM 08).r46

14.31 MB

 The.Thing.1982.DvDRiP.Eng-Stealthmaster (HHM 08).r47

8.57 MB

 The.Thing.1982.DvDRiP.Eng-Stealthmaster (HHM 08).rar

14.31 MB
 

Announce URL:

Torrent description

-------------------------------------------------------------------------------

Format : AVI
Format/Info : Audio Video Interleave
File size : 688 MiB
Duration : 1h 48mn
Overal bit rate : 885 Kbps
Writing application : VirtualDubMod 1.5.4.1 (build 2066/release)
Writing library : VirtualDubMod build 2066/release

-------------------------------------------------------------------------------
Video
-------------------------------------------------------------------------------


Format : MPEG-4 Visual
Format profile : Streaming [email protected]
Format settings, BVOP : Yes
Format settings, QPel : No
Format settings, GMC : No warppoints
Format settings, Matrix : Default
Muxing mode : Packet Bitstream
Codec ID : XVID
Codec ID/Hint : XviD
Duration : 1h 48mn
Bit rate : 746 Kbps
Width : 640 pixels
Height : 272 pixels
Display aspect ratio : 2.35
Frame rate : 29.970 fps
Resolution : 8 bits
Colorimetry : 4:2:0
Scan type : Progressive
Bits/(Pixel*Frame) : 0.143
Stream size : 580 MiB
Writing library : XviD 1.1.2 (UTC 2006-11-01)

-------------------------------------------------------------------------------
Audio
-------------------------------------------------------------------------------


Format : MPEG Audio
Format version : Version 1
Format profile : Layer 3
Codec ID : 55
Codec ID/Hint : MP3
Duration : 1h 48mn
Bit rate mode : Constant
Bit rate : 128 Kbps
Channel(s) : 2 channels
Sampling rate : 44.1 KHz
Resolution : 16 bits
Video delay : 26ms
Stream size : 99.5 MiB
Writing library : LAME3.92

-------------------------------------------------------------------------------
Overview
-------------------------------------------------------------------------------

Director: John Carpenter
Release Date: 25 June 1982 (USA) more
Genre: Horror | Mystery | Sci-Fi | Thriller more
Plot: Scientists in the Antarctic are confronted by a shape-shifting alien that assumes the appearance of the people that it kills.


-------------------------------------------------------------------------------
Cast
-------------------------------------------------------------------------------

Kurt Russell ... R.J. MacReady
Wilford Brimley ... Dr. Blair (as A. Wilford Brimley)
T.K. Carter ... Nauls

David Clennon ... Palmer

Keith David ... Childs
Richard Dysart ... Dr. Copper
Charles Hallahan ... Vance Norris
Peter Maloney ... George Bennings
Richard Masur ... Clark
Donald Moffat ... Garry

Joel Polis ... Fuchs

Thomas G. Waites ... Windows (as Thomas Waites)

Norbert Weisser ... Norwegian
Larry J. Franco ... Norwegian Passenger with Rifle (as Larry Franco)
Nate Irwin ... Helicopter Pilot
Link: http://www.imdb.com/title/tt0084787/

Join us at ilovetorrents.com for our "Halloween Horror Marathon",throughout all October


related torrents

Torrent name

health leech seeds Size
 


comments (0)

Main Menu