Horror

The Shining [1980] DVDRip N!CK

  • Download 5x Faster
  • Download torrent
  • Direct Download
  • Rate this torrent +  |  -
The Shining [1980] DVDRip N!CK

Free and Direct Download with Usenet.nl 300GB+ free


Torrent info

Name:The Shining [1980] DVDRip N!CK

Total Size: 708.74 MB

Magnet: Magnet Link

Seeds: 16

Leechers: 4

Stream: Watch Online @ Movie4u

Last Updated: 0000-00-00 00:00:00 (Update Now)

Torrent added: 2009-08-28 04:56:31





Torrent Files List


Subtitles (Size: 708.74 MB) (Files: 7)

 Subtitles

  The Shining [1980] DVDRip [ENG].srt

100.24 KB

  The Shining [1980] DVDRip [ROM].srt

90.15 KB

  The Shining [1980] DVDRip [SPA].srt

85.45 KB

  The Shining [1980] DVDRip [FRE].srt

81.95 KB

 The Shining [1980] DVDRip - N!CK.avi

702.80 MB

 Sample.avi

5.58 MB

 Release Info.txt

1.71 KB
 

Announce URL: http://open.tracker.thepiratebay.org/announce

Torrent description

General
Complete name : C:\The Shining [1980] DVDRip - N!CK\The Shining [1980] DVDRip - N!CK.avi
Format : AVI
Format/Info : Audio Video Interleave
File size : 703 MiB
Duration : 2h 23mn
Overal bit rate : 683 Kbps

Video
Format : MPEG-4 Visual
Format profile : Streaming [email protected]
Format settings, BVOP : Yes
Format settings, QPel : No
Format settings, GMC : No warppoints
Format settings, Matrix : Default
Codec ID : XVID
Codec ID/Hint : XviD
Duration : 2h 23mn
Bit rate : 575 Kbps
Width : 640 pixels
Height : 360 pixels
Display aspect ratio : 16/9
Frame rate : 23.976 fps
Resolution : 8 bits
Colorimetry : 4:2:0
Scan type : Progressive
Bits/(Pixel*Frame) : 0.104
Stream size : 591 MiB
Writing library : XviD 50

Audio
Format : MPEG Audio
Format version : Version 1
Format profile : Layer 3
Codec ID : 55
Codec ID/Hint : MP3
Bit rate mode : Constant
Bit rate : 96.0 Kbps
Channel(s) : 2 channels
Sampling rate : 48.0 KHz
Resolution : 16 bits
Stream size : 98.7 MiB

related torrents

Torrent name

health leech seeds Size
 

comments (0)

Main Menu