Horror

The Serpent And The Rainbow [1988] XviD DVDRip BDK

  • Download 5x Faster
  • Download torrent
  • Direct Download
  • Rate this torrent +  |  -

Torrent info

Name:The Serpent And The Rainbow [1988] XviD DVDRip BDK

Total Size: 800.04 MB

Magnet: Magnet Link

Seeds: 0

Leechers: 0

Stream: Watch Full Movie @ Movie4u

Last Updated: 2010-12-26 02:03:17 (Update Now)

Torrent added: 2009-08-28 04:55:11



VPN For Torrents

Torrent Files List


SerpArc.avi (Size: 800.04 MB) (Files: 1)

 SerpArc.avi

800.04 MB
4div c݇бs-ar2 h1P1ȉ11

Announce URL:

Torrent description

Release Date:
5 February 1988 (USA)

Genre: Horror

Director: Wes Craven

IMDB Rating: 6.2/10 (5,234 Votes)

----------------------------------------------------------------------------------

Dennis Allan is an scientist who visits Haiti on the strength of a rumour of a drug which renders the recipient totally paralyzed but conscious. The drug's effects often fool doctors, who declare the victims dead. Could this be the origin of the "zombie" legend? Alan embarks on a surprising and often surreal investigation of the turbulent social chaos that is Haiti during the revolution which ousted hated dictator "Baby Doc" Duvalier. Often a pawn in a greater game, Alan must decide what is science, what is superstition, and what is the unknown in a anarchistic society where police corruption and witch-doctory are commonplace.

----------------------------------------------------------------------------------

General
Complete name : SerpArc.avi
Format : AVI
Format/Info : Audio Video Interleave
File size : 800 MiB
Duration : 1h 33mn
Overall bit rate : 1 191 Kbps
Writing application : VirtualDubMod 1.5.4.1 (build 2178/release)
Writing library : VirtualDubMod build 2178/release

Video
Format : MPEG-4 Visual
Format profile : Streaming [email protected]
Format settings, BVOP : Yes
Format settings, QPel : No
Format settings, GMC : No warppoints
Format settings, Matrix : Custom
Codec ID : XVID
Codec ID/Hint : XviD
Duration : 1h 33mn
Bit rate : 1 055 Kbps
Width : 608 pixels
Height : 352 pixels
Display aspect ratio : 16/9
Frame rate : 29.970 fps
Resolution : 24 bits
Colorimetry : 4:2:0
Scan type : Progressive
Bits/(Pixel*Frame) : 0.164
Stream size : 708 MiB (89%)
Writing library : XviD 1.2.0.dev47 (UTC 2006-11-01)

Audio
Format : MPEG Audio
Format version : Version 1
Format profile : Layer 3
Codec ID : 55
Codec ID/Hint : MP3
Duration : 1h 33mn
Bit rate mode : Constant
Bit rate : 128 Kbps
Minimum bit rate : 128 Kbps
Channel(s) : 2 channels
Sampling rate : 48.0 KHz
Resolution : 16 bits
Stream size : 86.0 MiB (11%)
Alignment : Aligned on interleaves
Interleave, duration : 67 ms (2.00 video frames)
Interleave, preload duration : 504 ms
Writing library : LAME3.97
Encoding settings : CBR
Language : English



Please help your fellow pirates by seeding after download!

related torrents

Torrent name

health leech seeds Size
 


comments (0)

Main Menu

 

script data-cfasync="false" src="//d2ghscazvn398x.cloudfront.net/?cshgd=690275">