Horror

The Ruins 2008 MULTiSUBS DVDRip XviD Cocc

  • Download 5x Faster
  • Download torrent
  • Direct Download
  • Rate this torrent +  |  -
The Ruins 2008 MULTiSUBS DVDRip XviD Cocc

Free and Direct Download with Usenet.nl 300GB+ free


Torrent info

Name:The Ruins 2008 MULTiSUBS DVDRip XviD Cocc

Total Size: 703.07 MB

Magnet: Magnet Link

Seeds: 0

Leechers: 0

Stream: Watch Online @ Movie4u

Last Updated: 2010-08-31 17:58:20 (Update Now)

Torrent added: 2009-08-28 04:51:40





Torrent Files List


Sub.rar (Size: 703.07 MB) (Files: 2)

 Sub.rar

3.28 MB

 The.Ruins.2008.MULTiSUBS.DVDRip.XviD-Cocc.avi

699.79 MB
 

Announce URL: http://vip.tracker.thepiratebay.org:80/announce

Torrent description

The Ruins (2008)

A group of friends whose leisurely Mexican holiday takes a turn for
the worse when they, along with a fellow tourist embark on a remote
archaeological dig in the jungle, where something evil lives among
the ruins.



Subtitles; Da,En,Fi,No,Sv,


IMDb http://www.imdb.com/title/tt0963794/




General
Complete name : The.Ruins.2008.MULTiSUBS.DVDRip.XviD-Cocc.avi
Format : AVI
Format/Info : Audio Video Interleave
File size : 700 MiB
Duration : 1h 26mn
Overall bit rate : 1 127 Kbps
Writing application : Nandub v1.0rc2
Writing library : Nandub build 1852/release

Video
Format : MPEG-4 Visual
Format profile : Streaming [email protected]
Format settings, BVOP : Yes
Format settings, QPel : No
Format settings, GMC : No warppoints
Format settings, Matrix : Default
Muxing mode : Packed bitstream
Codec ID : XVID
Codec ID/Hint : XviD
Duration : 1h 26mn
Bit rate : 975 Kbps
Width : 640 pixels
Height : 272 pixels
Display aspect ratio : 2.35
Frame rate : 25.000 fps
Resolution : 24 bits
Colorimetry : 4:2:0
Scan type : Progressive
Bits/(Pixel*Frame) : 0.224
Stream size : 605 MiB (86%)
Writing library : XviD 1.1.2 (UTC 2006-11-01)

Audio
Format : MPEG Audio
Format version : Version 1
Format profile : Layer 3
Codec ID : 55
Codec ID/Hint : MP3
Duration : 1h 26mn
Bit rate mode : Variable
Bit rate : 139 Kbps
Minimum bit rate : 128 Kbps
Channel(s) : 2 channels
Sampling rate : 48.0 KHz
Resolution : 16 bits
Stream size : 86.5 MiB (12%)
Alignment : Aligned on interleaves
Interleave, duration : 24 ms (0.60 video frame)
Interleave, preload duration : 128 ms
Writing library : LAME3.92
Encoding settings : VBR (rh)

Created with: DP MediaInfo version 1.05 (c) by Dirk Paehl
MediaInfoLib - v0.7.7.6

related torrents

Torrent name

health leech seeds Size
 

comments (0)

Main Menu