Horror

THE RELIC DEWSTRR

  • Download 5x Faster
  • Download torrent
  • Direct Download
  • Rate this torrent +  |  -
THE RELIC DEWSTRR

Free and Direct Download with Usenet.nl 300GB+ free


Torrent info

Name:THE RELIC DEWSTRR

Total Size: 1.09 GB

Magnet: Magnet Link

Seeds: 3

Leechers: 1

Stream: Watch Online @ Movie4u

Last Updated: 2010-08-26 15:13:42 (Update Now)

Torrent added: 2009-08-28 04:44:23





Torrent Files List


THE RELIC.avi (Size: 1.09 GB) (Files: 15)

 THE RELIC.avi

1.09 GB

 THE RELIC.NFO

3.09 KB

 THE RELIC.sfv

1.49 KB

 Torrent_downloaded_from_Demonoid.com.txt

0.05 KB

 TR 1.jpg

14.32 KB

 TR 10.jpg

21.27 KB

 TR 2.jpg

9.13 KB

 TR 3.jpg

10.30 KB

 TR 4.jpg

7.78 KB

 TR 5.jpg

14.46 KB

 TR 6.jpg

13.10 KB

 TR 7.jpg

12.62 KB

 TR 8.jpg

6.93 KB

 TR 9.jpg

20.00 KB

 TR CP.jpg

15.58 KB
 

Announce URL: http://inferno.demonoid.com:3412/announce

Torrent description

THE RELIC

Horror | Thriller

A researcher at Chicago's Natural History Museum returns from South America with some crates containing his findings. When the crates arrive at the museum without the owner there appears to be very little inside. However, police discover gruesome murders on the cargo ship that brought the crates to the US and then another murder in the museum itself. Investigating the murders is Lt. Vincent D'Agosta who enlists the help of Dr. Margo Green at the museum - she has taken an interest in the contents of her colleague's crates. Unknown to both there is a large creature roaming the museum which is gearing itself up for a benefit reception which the city's mayor is to attend.

THE RELIC DEWSTRR preview 0

http://www.imdb.com/title/tt0120004/

Format : AVI
Format/Info : Audio Video Interleave
File size : 1.09 GiB
Duration : 1h 49mn
Overall bit rate : 1 427 Kbps
Writing application : VirtualDubMod 1.5.4.1 (build 2178/release)
Writing library : VirtualDubMod build 2178/release

Video
Format : MPEG-4 Visual
Format settings, BVOP : No
Format settings, QPel : No
Format settings, GMC : No warppoints
Format settings, Matrix : Default
Codec ID : DX50
Codec ID/Hint : DivX 5
Duration : 1h 49mn
Bit rate : 1 229 Kbps
Width : 720 pixels
Height : 320 pixels
Display aspect ratio : 2.25
Frame rate : 23.976 fps
Resolution : 24 bits
Colorimetry : 4:2:0
Scan type : Progressive
Bits/(Pixel*Frame) : 0.222
Stream size : 965 MiB (86%)
Writing library : DivX 2816

Audio
Format : AC-3
Format/Info : Audio Coding 3
Format profile : Dolby Digital
Codec ID : 2000
Duration : 1h 49mn
Bit rate mode : Constant
Bit rate : 192 Kbps
Channel(s) : 2 channels
Channel positions : L R
Sampling rate : 48.0 KHz
Video delay : 23ms
Stream size : 151 MiB (13%)
Alignment : Split accross interleaves
Interleave, duration : 96 ms (2.30 video frames)
Interleave, preload duration : 96 ms

General
Complete name : THE RELIC.sfv
File size : 1.49 KiB

General
Complete name : THE RELIC.DEWSTRR\Torrent_downloaded_from_Demonoid.com.txt
File size : 47.0 Bytes
THE RELIC DEWSTRR preview 1
THE RELIC DEWSTRR preview 2
THE RELIC DEWSTRR preview 3
THE RELIC DEWSTRR preview 4
THE RELIC DEWSTRR preview 5
THE RELIC DEWSTRR preview 6
THE RELIC DEWSTRR preview 7
THE RELIC DEWSTRR preview 8
THE RELIC DEWSTRR preview 9
THE RELIC DEWSTRR preview 10
burned with windows [with a couple of other movies on a disk] and played on my philips divx ultra certified dvd player
be sure to set your dvd player on the correct aspect ratio

related torrents

Torrent name

health leech seeds Size

END OF THE LINE DEWSTRR

0 1 898.36 MB 0
 

comments (0)

Main Menu