Horror

The People Under the Stairs (Xvid)[

  • Download 5x Faster
  • Download torrent
  • Direct Download
  • Rate this torrent +  |  -
The People Under the Stairs (Xvid)[

Anonymous and Free Direct Download 300GB+


Torrent info

Name:The People Under the Stairs (Xvid)[

Total Size: 700.50 MB

Magnet: Magnet Link

Seeds: 0

Leechers: 0

Stream: Watch Online @ Movie4u

Last Updated: 2010-08-22 16:20:13 (Update Now)

Torrent added: 2009-08-28 04:38:07



VPN For Torrents

Torrent Files List


The People Under the Stairs.nfo (Size: 700.50 MB) (Files: 51)

 The People Under the Stairs.nfo

4.88 KB

 The People Under the Stairs.sfv

6.17 KB

 The.People.Under.The.Stairs.part01.rar

14.31 MB

 The.People.Under.The.Stairs.part02.rar

14.31 MB

 The.People.Under.The.Stairs.part03.rar

14.31 MB

 The.People.Under.The.Stairs.part04.rar

14.31 MB

 The.People.Under.The.Stairs.part05.rar

14.31 MB

 The.People.Under.The.Stairs.part06.rar

14.31 MB

 The.People.Under.The.Stairs.part07.rar

14.31 MB

 The.People.Under.The.Stairs.part08.rar

14.31 MB

 The.People.Under.The.Stairs.part09.rar

14.31 MB

 The.People.Under.The.Stairs.part10.rar

14.31 MB

 The.People.Under.The.Stairs.part11.rar

14.31 MB

 The.People.Under.The.Stairs.part12.rar

14.31 MB

 The.People.Under.The.Stairs.part13.rar

14.31 MB

 The.People.Under.The.Stairs.part14.rar

14.31 MB

 The.People.Under.The.Stairs.part15.rar

14.31 MB

 The.People.Under.The.Stairs.part16.rar

14.31 MB

 The.People.Under.The.Stairs.part17.rar

14.31 MB

 The.People.Under.The.Stairs.part18.rar

14.31 MB

 The.People.Under.The.Stairs.part19.rar

14.31 MB

 The.People.Under.The.Stairs.part20.rar

14.31 MB

 The.People.Under.The.Stairs.part21.rar

14.31 MB

 The.People.Under.The.Stairs.part22.rar

14.31 MB

 The.People.Under.The.Stairs.part23.rar

14.31 MB

 The.People.Under.The.Stairs.part24.rar

14.31 MB

 The.People.Under.The.Stairs.part25.rar

14.31 MB

 The.People.Under.The.Stairs.part26.rar

14.31 MB

 The.People.Under.The.Stairs.part27.rar

14.31 MB

 The.People.Under.The.Stairs.part28.rar

14.31 MB

 The.People.Under.The.Stairs.part29.rar

14.31 MB

 The.People.Under.The.Stairs.part30.rar

14.31 MB

 The.People.Under.The.Stairs.part31.rar

14.31 MB

 The.People.Under.The.Stairs.part32.rar

14.31 MB

 The.People.Under.The.Stairs.part33.rar

14.31 MB

 The.People.Under.The.Stairs.part34.rar

14.31 MB

 The.People.Under.The.Stairs.part35.rar

14.31 MB

 The.People.Under.The.Stairs.part36.rar

14.31 MB

 The.People.Under.The.Stairs.part37.rar

14.31 MB

 The.People.Under.The.Stairs.part38.rar

14.31 MB

 The.People.Under.The.Stairs.part39.rar

14.31 MB

 The.People.Under.The.Stairs.part40.rar

14.31 MB

 The.People.Under.The.Stairs.part41.rar

14.31 MB

 The.People.Under.The.Stairs.part42.rar

14.31 MB

 The.People.Under.The.Stairs.part43.rar

14.31 MB

 The.People.Under.The.Stairs.part44.rar

14.31 MB

 The.People.Under.The.Stairs.part45.rar

14.31 MB

 The.People.Under.The.Stairs.part46.rar

14.31 MB

 The.People.Under.The.Stairs.part47.rar

14.31 MB

 The.People.Under.The.Stairs.part48.rar

14.31 MB

 The.People.Under.The.Stairs.part49.rar

13.85 MB
 

Announce URL: http://tracker.ilovetorrents.com/announce.php

Torrent description

The People Under the Stairs is the story of a young boy (Fool) from the ghetto and takes place on his 13th birthday. In an attempted burglary (along with two others) of the home of his family's evil landlords, he becomes trapped inside their large suburban house and discovers the secret of the "children" that the insane brother and sister have been "rearing" under the stairs.

Format : AVI
Format/Info : Audio Video Interleave
File size : 700 MiB
Duration : 1h 36mn
Overall bit rate : 1 014 Kbps
Writing application : Nandub v1.0rc2
Writing library : Nandub build 1853/release

Video
Format : MPEG-4 Visual
Codec ID : DIV3
Codec ID/Hint : DivX 3 Low
Duration : 1h 36mn
Bit rate : 876 Kbps
Width : 560 pixels
Height : 320 pixels
Display aspect ratio : 16/9
Frame rate : 25.000 fps
Resolution : 24 bits
Bits/(Pixel*Frame) : 0.195
Stream size : 605 MiB (86%)

Audio
Format : MPEG Audio
Format version : Version 1
Format profile : Layer 3
Codec ID : 55
Codec ID/Hint : MP3
Duration : 1h 36mn
Bit rate mode : Variable
Bit rate : 125 Kbps
Channel(s) : 2 channels
Sampling rate : 48.0 KHz
Resolution : 16 bits
Stream size : 86.3 MiB (12%)
Alignment : Aligned on interleaves
Interleave, duration : 24 ms (0.60 video frame)
Interleave, preload duration : 384 ms
Writing library : LAME3.89 (beta)
http://www.imdb.com/title/tt0105121/

related torrents

Torrent name

health leech seeds Size
 


comments (0)

Main Menu