Other

Sunday Night The War On Movie Piracy The Bigest Bust Ever on DVD Piracy

  • Download 5x Faster
  • Download torrent
  • Direct Download
  • Rate this torrent +  |  -
Sunday Night The War On Movie Piracy The Bigest Bust Ever on DVD Piracy

Free and Direct Download with Usenet 300GB+ free


Torrent info

Name:Sunday Night The War On Movie Piracy The Bigest Bust Ever on DVD Piracy

Total Size: 119.04 MB

Magnet: Magnet Link

Seeds: 1

Leechers: 2

Stream: Watch Online @ Movie4u

Last Updated: 2010-07-26 17:03:59 (Update Now)

Torrent added: 2009-08-28 04:35:36




Torrent Files List


Sunday_Night_-_The_War_On_Movie_Piracy.avi (Size: 119.04 MB) (Files: 1)

 Sunday_Night_-_The_War_On_Movie_Piracy.avi

119.04 MB
 

Announce URL: http://greekadiko.biz:2710/478418be713dd5994677be540b1fcb34/announce

Torrent description

PLEASE PLEASE PLEASE SEED THIS ONE
COUZ ITS GONNA BE A HOT DOWNLOAD FOA ALL OF US!



Here is a short doc aired in Australia last month regarding movie piracy.
I guess all of you have to download this one. You need it!

Based on the biggest bust ever made world wide in regards to Movie piracy!

Perfect quality. English Language.


General
Complete name : Sunday_Night_-_The_War_On_Movie_Piracy.avi
Format : AVI
Format/Info : Audio Video Interleave
File size : 119 MiB
Duration : 12mn 35s
Overall bit rate : 1 322 Kbps
Writing application : VirtualDubMod 1.5.4.1 (build 2178/release)
Writing library : VirtualDubMod build 2178/release

Video
ID : 0
Format : MPEG-4 Visual
Format profile : Streaming [email protected]
Format settings, BVOP : Yes
Format settings, QPel : No
Format settings, GMC : No warppoints
Format settings, Matrix : Default (H.263)
Muxing mode : Packed bitstream
Codec ID : XVID
Codec ID/Hint : XviD
Duration : 12mn 35s
Bit rate : 1 091 Kbps
Width : 720 pixels
Height : 416 pixels
Display aspect ratio : 16/9
Frame rate : 25.000 fps
Resolution : 24 bits
Colorimetry : 4:2:0
Scan type : Progressive
Bits/(Pixel*Frame) : 0.146
Stream size : 98.2 MiB (82%)
Writing library : XviD 1.2.1 (UTC 2008-12-04)

Audio
ID : 1
Format : MPEG Audio
Format version : Version 1
Format profile : Layer 3
Codec ID : 55
Codec ID/Hint : MP3
Duration : 12mn 35s
Bit rate mode : Constant
Bit rate : 224 Kbps
Channel(s) : 2 channels
Sampling rate : 48.0 KHz
Resolution : 16 bits
Stream size : 20.2 MiB (17%)
Alignment : Aligned on interleaves
Interleave, duration : 80 ms (2.00 video frames)
Interleave, preload duration : 504 ms
Writing library : LAME3.98r
Encoding settings : -m j -V 4 -q 2 -lowpass 19.4 -b 224



PLEASE PLEASE PLEASE SEED THIS ONE
COUZ ITS GONNA BE A HOT DOWNLOAD FOA ALL OF US!

related torrents

Torrent name

health leech seeds Size
 

comments (0)

Main Menu