Pop

Destinys child HDTV Cater 2 U 720p[h33t][Dave3737]

  • Download 5x Faster
  • Download torrent
  • Direct Download
  • Rate this torrent +  |  -
Destinys child HDTV Cater 2 U 720p[h33t][Dave3737]

Anonymous and free Direct Download 300GB+


Torrent info

Name:Destinys child HDTV Cater 2 U 720p[h33t][Dave3737]

Total Size: 93.62 MB

Magnet: Magnet Link

Seeds: 3

Leechers: 1

Stream: Watch Online @ Movie4u

Last Updated: 0000-00-00 00:00:00 (Update Now)

Torrent added: 2009-08-28 04:34:01



VPN For Torrents

Torrent Files List


Destinys child - Cater 2 u HD 720p.mp4 (Size: 93.62 MB) (Files: 4)

 Destinys child - Cater 2 u HD 720p.mp4

93.61 MB

 Destinys child - Cater 2 u HD 720p.mp4.txt

3.19 KB

 h33t - Dave 3737 Torrent list.URL

0.07 KB

 tracked_by_h33t_com.txt

0.02 KB
 

Announce URL: http://www.h33t.com:3310/announce

Torrent description

Destinys child HDTV  Cater 2 U 720p[h33t][Dave3737] preview 2

Destinys child HDTV  Cater 2 U 720p[h33t][Dave3737] preview 0


[color=red]Destinys child HDTV Cater 2 u HD 720p.mp4[/color]


Format : MPEG-4
Format profile : Base Media
Codec ID : isom
File size : 93.6 MiB
Duration : 4mn 8s
Overall bit rate : 3 162 Kbps
Movie name : DESTINYS_CHILD_CATER_2_U
Encoded date : UTC 2007-04-22 08:48:08
Tagged date : UTC 2007-04-22 08:48:08
Writing application : Lavf51.11.0

Video
Format : AVC
Format/Info : Advanced Video Codec
Format profile : [email protected]
Format settings, CABAC : Yes
Format settings, ReFrames : 1 frame
Codec ID : avc1
Codec ID/Info : Advanced Video Coding
Duration : 4mn 8s
Bit rate mode : Variable
Bit rate : 2 998 Kbps
Width : 1 264 pixels
Height : 720 pixels
Display aspect ratio : 16/9
Frame rate mode : Constant
Frame rate : 23.976 fps
Resolution : 24 bits
Colorimetry : 4:2:0
Scan type : Progressive
Bits/(Pixel*Frame) : 0.137
Stream size : 88.8 MiB (95%)
Encoded date : UTC 2007-04-22 08:48:08
Tagged date : UTC 2007-04-22 08:48:08

Audio
Format : AAC
Format/Info : Advanced Audio Codec
Format version : Version 4
Format profile : LC
Format settings, SBR : No
Codec ID : 40
Duration : 4mn 7s
Bit rate mode : Variable
Bit rate : 160 Kbps
Channel(s) : 2 channels
Channel positions : L R
Sampling rate : 48.0 KHz
Resolution : 16 bits
Stream size : 4.71 MiB (5%)
Encoded date : UTC 2007-04-22 08:48:08
Tagged date : UTC 2007-04-22 08:48:08





[color=red]
Torrent Files:[/color]

[color=violet]Dave3737 h33t user details torrent link php.

tracked_by_h33t_com txt.

Destinys child HDTV Cater 2 u HD 720p.mp4 AVI

Destinys child HDTV Cater 2 u HD 720p.mp4 Info.txt[/color]



[color=red]My Torrents[/color]


Destinys child HDTV  Cater 2 U 720p[h33t][Dave3737] preview 3

Destinys child HDTV  Cater 2 U 720p[h33t][Dave3737] preview 4

Destinys child HDTV  Cater 2 U 720p[h33t][Dave3737] preview 5
Destinys child HDTV  Cater 2 U 720p[h33t][Dave3737] preview 6
Destinys child HDTV  Cater 2 U 720p[h33t][Dave3737] preview 1
Destinys child HDTV  Cater 2 U 720p[h33t][Dave3737] preview 7



related torrents

Torrent name

health leech seeds Size
 


comments (0)

Main Menu