Horror

The Nostril Picker UNCUT (1993) DVDRip (AC 3)

  • Download 5x Faster
  • Download torrent
  • Direct Download
  • Rate this torrent +  |  -
The Nostril Picker UNCUT (1993) DVDRip (AC 3)

Anonymous and Free Direct Download 300GB+


Torrent info

Name:The Nostril Picker UNCUT (1993) DVDRip (AC 3)

Total Size: 1.07 GB

Magnet: Magnet Link

Seeds: 0

Leechers: 0

Stream: Watch Online @ Movie4u

Last Updated: 2011-04-18 07:17:56 (Update Now)

Torrent added: 2009-08-28 04:33:37



VPN For Torrents

Torrent Files List


The Nostril Picker [1993].avi (Size: 1.07 GB) (Files: 2)

 The Nostril Picker [1993].avi

1.07 GB

 Torrent downloaded from Demonoid.com.txt

0.05 KB
 

Announce URL: http://inferno.demonoid.com:3407/announce

Torrent description

Synopsis 1. The Nostril Picker is a 1993 horror film of the slasher genre. The film stars Carl Zschering as Joe Bukowski, a homicidal maniac who uses his special ability to get close to his female targets. When Joe picks his nose he undergoes a sex change becoming a woman, played by Ann Flood.

Synopsis 2. In THE NOSTRIL PICKER, an unattractive guy named Joe is befriended by an old man who claims he can help the loner get women. Joe learns a chant that gives him the power to change himself into a girl and uses this ability to lure teenage girls home with the promise of TV and girl talk. However, once he has the girls where he wants them, this nose picker does some truly nasty things....

This is strictly for fans of the genre.



General
Complete name : The Nostril Picker [1993].avi
Format : AVI
Format/Info : Audio Video Interleave
File size : 1.07 GiB
Duration : 1h 16mn
Overall bit rate : 1 999 Kbps
Writing application : VirtualDubMod 1.5.4.1 (build 2178/release)
Writing library : VirtualDubMod build 2178/release

Video
Format : MPEG-4 Visual
Format profile : Streaming [email protected]
Format settings, BVOP : Yes
Format settings, QPel : No
Format settings, GMC : No warppoints
Format settings, Matrix : Custom
Codec ID : XVID
Codec ID/Hint : XviD
Duration : 1h 16mn
Bit rate : 1 801 Kbps
Width : 720 pixels
Height : 544 pixels
Display aspect ratio : 4/3
Frame rate : 25.000 fps
Resolution : 24 bits
Colorimetry : 4:2:0
Scan type : Progressive
Bits/(Pixel*Frame) : 0.184
Stream size : 984 MiB (90%)
Writing library : XviD 1.2.1 (UTC 2008-12-04)

Audio
Format : AC-3
Format/Info : Audio Coding 3
Codec ID : 2000
Duration : 1h 16mn
Bit rate mode : Constant
Bit rate : 192 Kbps
Channel(s) : 2 channels
Channel positions : L R
Sampling rate : 48.0 KHz
Stream size : 105 MiB (10%)
Alignment : Aligned on interleaves
Interleave, duration : 96 ms (2.40 video frames)
Interleave, preload duration : 96 ms


Please help your fellow pirates by seeding after download!

related torrents

Torrent name

health leech seeds Size
 


comments (0)

Main Menu