Horror

The Mist 2007 DIVX La Vela avi

  • Download 5x Faster
  • Download torrent
  • Direct Download
  • Rate this torrent +  |  -
The Mist 2007 DIVX La Vela avi

Anonymous and free Direct Download 300GB+


Torrent info

Name:The Mist 2007 DIVX La Vela avi

Total Size: 2.17 GB

Magnet: Magnet Link

Seeds: 0

Leechers: 0

Stream: Watch Online @ Movie4u

Last Updated: 2015-09-09 19:36:26 (Update Now)

Torrent added: 2009-08-28 04:29:06



VPN For Torrents

Torrent Files List


Media.nfo (Size: 2.17 GB) (Files: 6)

 Media.nfo

2.18 KB

 Subs.rar

906.99 KB

 Thank You Info.txt

8.10 KB

 The Mist.jpg

36.55 KB

 The.Mist.2007.DIVX.La.Vela.avi

2.17 GB

 The_Mist_Custom-front.jpg

437.58 KB
 

tracker

leech seeds
 

Torrent description

Plot:

Everyone thought of it as a harmless lightning storm. When Dave Drayton notices a strange mist on the lake, he thinks nothing of it. When his son, Billy Drayton, his neighbor Brent Norton, and himself travel to the supermarket, the unthinkable happens. On their way to the market, they see the army, the firefighters, and the police, heading toward the mist. When he sees this Brent mentions something about "Project Arrowhead", a secret military plan that no one knows about. As they are shopping, they see three army men walk in, just to pick up a few things then head toward the mist. All eighty of the store's shoppers had no clue what was going on until an old man runs in the market with a bloody nose and declares "Something in the mist!" He tells them to close the door. About five seconds after they do close the door, the entire store shakes, as though it was lifted feet above the ground. When David is asked to check on the generator, the loading dock door was being pushed by something outside. Then there was a groan heard by Dave. He asks three people to come with him. When Norm the bag-boy volunteers to go out, he is taken by a creature with large squid-like tentacles that have mouths, teeth, and arms of their own. When Dave and the other three fight it off, they alarm everyone in the store what is out there. After hearing this, Mrs. Carmody exclaims that it is the end of times and that God is punishing them. People don't believe it until Mrs. Carmody has almost everyone in the store on her side. Does 'Project Arrowhead' have anything to do with this? Will Dave Drayton, his son, and his friends make it out alive as they make their last stand against this destruction? Or will they be taken by the demon-like creatures of 'The Mist'?



General

Complete name : The.Mist.2007.DIVX.La.Vela.avi

Imdb : http://www.imdb.com/title/tt0884328/
Language : English
Subtitles : Dutch ( .sub + .idx )
Format : AVI
Format/Info : Audio Video Interleave
Format profile : OpenDML
File size : 2.17 GiB
Duration : 5h 21mn
Overall bit rate : 964 Kbps
Writing application : Lavf51.12.1

Video
Format : MPEG-4 Visual
Format profile : [email protected]
Format settings, BVOP : No
Format settings, QPel : No
Format settings, GMC : No warppoints
Format settings, Matrix : Default
Codec ID : DX50
Codec ID/Hint : DivX 5
Duration : 5h 21mn
Bit rate : 863 Kbps
Width : 720 pixels
Height : 576 pixels
Display aspect ratio : 5/4
Frame rate : 25.000 fps
Standard : PAL
Resolution : 24 bits
Colorimetry : 4:2:0
Scan type : Progressive
Bits/(Pixel*Frame) : 0.083
Stream size : 1.94 GiB (90%)
Writing library : Lavc51.40.4

Audio
Format : MPEG Audio
Format version : Version 1
Format profile : Layer 3
Codec ID : 55
Codec ID/Hint : MP3
Duration : 2h 0mn
Bit rate mode : Constant
Bit rate : 256 Kbps
Channel(s) : 2 channels
Sampling rate : 48.0 KHz
Resolution : 16 bits
Stream size : 221 MiB (10%)
Alignment : Aligned on interleaves
Interleave, duration : 24 ms (0.60 video frame)
Interleave, preload duration : 24 ms

related torrents

Torrent name

health leech seeds Size
 


comments (0)

Main Menu