Pop

Demis Roussos Greatest Hits, [Lossless Flac + M3u ] tntvillage scambioetico org

  • Download 5x Faster
  • Download torrent
  • Direct Download
  • Rate this torrent +  |  -

Torrent info

Name:Demis Roussos Greatest Hits, [Lossless Flac + M3u ] tntvillage scambioetico org

Total Size: 408.88 MB

Magnet: Magnet Link

Seeds: 3

Leechers: 0

Stream: Watch Online @ Movie4u

Last Updated: 2015-09-28 23:29:23 (Update Now)

Torrent added: 2009-08-28 04:27:42



VPN For Torrents

Torrent Files List


01 - We Shall Dance.flac (Size: 372.46 MB) (Files: 23)

 01 - We Shall Dance.flac

22.31 MB

 02 - My Reason.flac

23.66 MB

 03 - For Ever And Ever.flac

22.34 MB

 04 - Goodbye My Love Goodbye.flac

23.18 MB

 05 - My Friend The Wind.flac

24.18 MB

 06 - Velvet Mornings.flac

21.88 MB

 07 - Lovely Lady Of Arcadia.flac

21.49 MB

 09 - My Only Fascination.flac

24.34 MB

 10 - Sing An Ode To Love.flac

23.28 MB

 11 - Perdoname.flac

19.76 MB

 13 - Happy To Be An Island In The Sun.flac

18.82 MB

 14 - Mourir Aupres De Mon Amour.flac

25.08 MB

 15 - Ainsi Soit-il.flac

23.23 MB

 16 - Lost In Love.flac

21.75 MB

 apraksts.txt

2.29 KB

 Artwork

  Demis Roussos - Greatest Hits (1983)-back.jpg

18.96 MB

  Demis Roussos - Greatest Hits (1983)-Cd.jpg

5.65 MB

  Demis Roussos - Greatest Hits (1983)-front.jpg

32.46 MB

  demis.jpg

46.36 KB

 Demis Roussos - Greatest Hits.log

6.40 KB

 Demis Roussos - Greatest Hits.m3u

0.47 KB

 info.txt

3.33 KB

 thumb.jpg

39.59 KB
 

tracker

leech seeds
 

Torrent description

[align=center]Demis Roussos   Greatest Hits, [Lossless Flac + M3u ] tntvillage scambioetico org preview 1

[SIZE=16][color=#e1771e]Demis Roussos - Greatest Hits [/SIZE][/color]
[color=purple] by Ramasutra [/color]

[color=green]:::->Cover<-:::[/color]
Demis Roussos   Greatest Hits, [Lossless Flac + M3u ] tntvillage scambioetico org preview 0

[color=green]:::->Dati Album<-:::[/color]


Autore: Demis Roussos
Titolo: Greatest hits
anno:1983
Genere: Pop & folk
Etichetta:philips
fonte cd /originale /cdda
Cover : Incluse
------------------------------------------------------------------------------------------------------------------------
[color=green]:::->Tracklist<-:::[/color]

1. We Shall Dance
2. My Reason
3. Forever And Ever
4. Goodbye My Love Goodbye
5. My Friend The Wind
6. Velvet Mornings
7. Lovely Lady Of Arcadia
8. Someday Somewhere
9. My Only Fascination
10. Sing An Ode To Love
11. Perdoname
12. From Souvenirs To Souvenirs
13. Happy To Be On An Island In The Sun
14. Mourir Aupres De Mon Amour (Je Te Dirai Des Mots)
15. Ainsi Soit-Il
16. Lost In Love






-----------------------------------------------------------------------------------------------------------------------
Demis Roussos , nome completo Artemios (Demis) Ventouris Roussos (in greco: Αρτ?μιος [Nτ?μης] Bεντο?ρης Pο?σσος) (Alessandria d'Egitto, 15 giugno 1946) è un cantante e bassista greco.

Considerato una delle migliori voci della storia della musica, ha saputo esprimere il passato ellenico e la bellezza delle terre in cui ha vissuto attraverso un canto poetico e soave.

Come bassista ha uno stile che ricorda le sonorità e la tecnica di Paul McCartney e di Brian Wilson.

Il gruppo degli Aphrodite's Child del quale ha fatto parte dall'origine allo scioglimento di esso ha prodotto singoli di successo planetario come It's Five O'clock, e un album 666 considerato da pubblico e da critica come un capolavoro. Inoltre, il tastierista del gruppo, Vangelis Papathanassiou, e' divenuto il famosissimo compositore di colonne sonore conosciuto semplicemente come Vangelis (alcuni titoli da lui musicati: Momenti di gloria, Blade Runner, Alexander).

Nato in Egitto da genitori greci espatriati, tornò con questi nel paese di origine dopo la perdita di tutti i loro averi in seguito alla Crisi di Suez nel 1956.

In gioventù il cantante aveva appreso il solfeggio e aveva imparato a suonare la chitarra e la tromba, divenendo inoltre solista nel coro (musica della chiesa bizantina di Alessandria d'Egitto. In Grecia Demis entrò a far parte di numerosi gruppi musicali (The Idols, We Five e soprattutto Aphrodite's Child) prima di iniziare la carriera da solista.

È apparso anche in album solisti del leader degli Aphrodite's Child, Vangelis. Un grande successo è stato Race to the End, adattamento vocale del tema portante della colonna sonora di Momenti di Gloria (Chariots of Fire).

La sua carriera solistica ha toccato l'apice negli anni '70; il singolo Forever and Ever fu primo nelle classifiche di molti paesi nel 1976.
Altri successi furono My Friend the Wind, My Reason and Lovely Lady of Arcadia. Molto nota fu anche una sua versione di Lost in Love degli Air Supply.

Fu tra i passegeri del volo TWA 847 dirottato il 14 giugno del 1985,

Percependo una svolta nella sua vita Demis si imbarcò in un'operazione di rilancio dell'attività con l'LP Time che gli ottenne una certa acclamazione e un singolo di successo nelle discoteche (Dance of Love).

Gli anni '90 videro ulteriori sostanziali uscite: si accordò con la BR Music in Olanda per produrre Immortel, Serenade and In Holland, utilizzando una gran varietà di strumenti etnici e stili elettronici.

Demi continua a registrare e ad esibirsi dal vivo. Nella primavera del 2002 fece un tour del Regno Unito.

Nel 2002 Demis Roussous ha duettato con Ivana Spagna nel brano Tears of Love, inserito nell'album della cantante veronese: Woman




[color=green]:::->Dati Tecnici<-:::[/color]

[color=red] Formato : Flac [/color]
Programma usato [Eac]

[CODE]
Exact Audio Copy V0.99 prebeta 4 from 24. January 2008

EAC extraction logfile from 28. March 2008, 7:56

Demis Roussos / Greatest Hits

Used drive : _NEC DVD_RW ND-3550A Adapter: 5 ID: 0

Read mode : Secure
Utilize accurate stream : Yes
Defeat audio cache : Yes
Make use of C2 pointers : No

Read offset correction : 6
Overread into Lead-In and Lead-Out : No
Fill up missing offset samples with silence : Yes
Delete leading and trailing silent blocks : No
Null samples used in CRC calculations : Yes
Used interface : Native Win32 interface for Win NT & 2000
Gap handling : Appended to previous track

Used output format : User Defined Encoder
Selected bitrate : 768 kBit/s
Quality : High
Add ID3 tag : No
Command line compressor : C:\Program\FLAC\flac.exe
Additional command line options : -8 -V -T "artist=%a" -T "title=%t" -T "album=%g" -T "date=%y" -T "tracknumber=%n" -T "genre=%m" %s


TOC of the extracted CD

Track | Start | Length | Start sector | End sector
---------------------------------------------------------
1 | 0:00.32 | 3:32.63 | 32 | 15994
2 | 3:33.20 | 3:55.12 | 15995 | 33631
3 | 7:28.32 | 3:41.13 | 33632 | 50219
4 | 11:09.45 | 3:59.10 | 50220 | 68154
5 | 15:08.55 | 3:54.15 | 68155 | 85719
6 | 19:02.70 | 3:40.12 | 85720 | 102231
7 | 22:43.07 | 3:26.00 | 102232 | 117681
8 | 26:09.07 | 3:06.50 | 117682 | 131681
9 | 29:15.57 | 3:45.13 | 131682 | 148569
10 | 33:00.70 | 4:11.37 | 148570 | 167431
11 | 37:12.32 | 3:00.63 | 167432 | 180994
12 | 40:13.20 | 2:36.37 | 180995 | 192731
13 | 42:49.57 | 3:07.53 | 192732 | 206809
14 | 45:57.35 | 4:20.22 | 206810 | 226331
15 | 50:17.57 | 3:43.33 | 226332 | 243089
16 | 54:01.15 | 3:26.00 | 243090 | 258539


Track 1

Filename L:\FLAC\01 - We Shall Dance.wav

Pre-gap length 0:00:02.32

Peak level 99.5 %
Track quality 99.9 %
Test CRC 382054BF
Copy CRC 382054BF
Track not present in AccurateRip database
Copy OK

Track 2

Filename L:\FLAC\02 - My Reason.wav

Pre-gap length 0:00:02.43

Peak level 90.5 %
Track quality 100.0 %
Test CRC A80BC51C
Copy CRC A80BC51C
Track not present in AccurateRip database
Copy OK

Track 3

Filename L:\FLAC\03 - For Ever And Ever.wav

Pre-gap length 0:00:01.36

Peak level 86.3 %
Track quality 99.9 %
Test CRC D2D23708
Copy CRC D2D23708
Track not present in AccurateRip database
Copy OK

Track 4

Filename L:\FLAC\04 - Goodbye My Love Goodbye.wav

Pre-gap length 0:00:01.60

Peak level 76.7 %
Track quality 100.0 %
Test CRC F81C2760
Copy CRC F81C2760
Track not present in AccurateRip database
Copy OK

Track 5

Filename L:\FLAC\05 - My Friend The Wind.wav

Pre-gap length 0:00:01.44

Peak level 93.9 %
Track quality 100.0 %
Test CRC CFA1FE20
Copy CRC CFA1FE20
Track not present in AccurateRip database
Copy OK

Track 6

Filename L:\FLAC\06 - Velvet Mornings.wav

Pre-gap length 0:00:01.31

Peak level 87.1 %
Track quality 99.9 %
Test CRC 52CCFC5A
Copy CRC 52CCFC5A
Track not present in AccurateRip database
Copy OK

Track 7

Filename L:\FLAC\07 - Lovely Lady Of Arcadia.wav

Pre-gap length 0:00:01.67

Peak level 91.4 %
Track quality 100.0 %
Test CRC F689BD3E
Copy CRC F689BD3E
Track not present in AccurateRip database
Copy OK

Track 8

Filename L:\FLAC\08 - Someday Somewhere.wav

Pre-gap length 0:00:01.53

Peak level 83.3 %
Track quality 100.0 %
Test CRC 0E462D4C
Copy CRC 0E462D4C
Track not present in AccurateRip database
Copy OK

Track 9

Filename L:\FLAC\09 - My Only Fascination.wav

Pre-gap length 0:00:01.63

Peak level 98.6 %
Track quality 100.0 %
Test CRC 8FC396E7
Copy CRC 8FC396E7
Track not present in AccurateRip database
Copy OK

Track 10

Filename L:\FLAC\10 - Sing An Ode To Love.wav

Pre-gap length 0:00:01.45

Peak level 81.1 %
Track quality 100.0 %
Test CRC 95A497EB
Copy CRC 95A497EB
Track not present in AccurateRip database
Copy OK

Track 11

Filename L:\FLAC\11 - Perdoname.wav

Pre-gap length 0:00:01.63

Peak level 79.1 %
Track quality 100.0 %
Test CRC 9644809E
Copy CRC 9644809E
Track not present in AccurateRip database
Copy OK

Track 12

Filename L:\FLAC\12 - From Souvenirs To Souvenirs.wav

Pre-gap length 0:00:01.43

Peak level 76.8 %
Track quality 100.0 %
Test CRC B54D7765
Copy CRC B54D7765
Track not present in AccurateRip database
Copy OK

Track 13

Filename L:\FLAC\13 - Happy To Be An Island In The Sun.wav

Pre-gap length 0:00:00.64

Peak level 89.0 %
Track quality 100.0 %
Test CRC 5851F0C9
Copy CRC 5851F0C9
Track not present in AccurateRip database
Copy OK

Track 14

Filename L:\FLAC\14 - Mourir Aupres De Mon Amour.wav

Peak level 80.0 %
Track quality 100.0 %
Test CRC 3D272C06
Copy CRC 3D272C06
Track not present in AccurateRip database
Copy OK

Track 15

Filename L:\FLAC\15 - Ainsi Soit-il.wav

Pre-gap length 0:00:01.41

Peak level 68.7 %
Track quality 100.0 %
Test CRC E64E8C71
Copy CRC E64E8C71
Track not present in AccurateRip database
Copy OK

Track 16

Filename L:\FLAC\16 - Lost In Love.wav

Peak level 89.3 %
Track quality 100.0 %
Test CRC CB38BFF6
Copy CRC CB38BFF6
Track not present in AccurateRip database
Copy OK


None of the tracks are present in the AccurateRip database

No errors occurred

End of status report

[/CODE]


[color=green]:::->Note<-:::[/color]
Seed 24/24 ore, 25 kb

Per ascoltarlo usa Foobar 2000,per masterizzarlo Brrrn .[/align]

related torrents

Torrent name

health leech seeds Size
 


comments (0)

Main Menu