Horror

The Midnight Meat Train (2008) [R5] [Eng] [Xvid] {1337x} Noir

  • Download 5x Faster
  • Download torrent
  • Direct Download
  • Rate this torrent +  |  -
The Midnight Meat Train (2008) [R5] [Eng] [Xvid] {1337x} Noir

Free and Direct Download with Usenet.nl 300GB+ free


Torrent info

Name:The Midnight Meat Train (2008) [R5] [Eng] [Xvid] {1337x} Noir

Total Size: 723.12 MB

Magnet: Magnet Link

Seeds: 0

Leechers: 0

Stream: Watch Online @ Movie4u

Last Updated: 2016-03-24 20:14:59 (Update Now)

Torrent added: 2009-08-28 04:27:06





Torrent Files List


1337x.Org.txt (Size: 723.12 MB) (Files: 3)

 1337x.Org.txt

0.03 KB

 Noir.nfo

5.53 KB

 The Midnight Meat Train (2008) [R5] [Eng] [Xvid] {1337x}-Noir.avi

723.12 MB
 

tracker

leech seeds
 

Torrent description

The Midnight Meat Train (2008) [R5] [Eng] [Xvid] {1337x} Noir preview 0

Screenshots

The Midnight Meat Train (2008) [R5] [Eng] [Xvid] {1337x} Noir preview 1

The Midnight Meat Train (2008) [R5] [Eng] [Xvid] {1337x} Noir preview 2

The Midnight Meat Train (2008) [R5] [Eng] [Xvid] {1337x} Noir preview 3

The Midnight Meat Train (2008) [R5] [Eng] [Xvid] {1337x} Noir preview 4
[code]

??????
??????? ????
???????? ??????
????????? ???????????
??????? ???????????? ?????????????
????????? ???????????????????????????
?????????? ???????????????????????????
??????????? ?????????????????????????????
?????????????????????????????????????????
?????????????????????????????????????????
?????????????????????????????????????????
?????????????????????????????????????????
?????????????????????????????????????????
???????? ?????????????????????????????????
????????? ????????????????????????????
????????? ????????????????? ????????
????????? ???????????????? ????????
????????? ?????????????? ????????
????????? ?????




***********************************
* The Midnight Meat Train (2008) *
***********************************

________________________
General Information |
________________________|
_______________________________________________________________
Type : Movie
Format : AVI
Format/Info : Audio Video Interleave
File size : 729Mb
Duration : 2h 02mn
Language : English
Subtitles : None
Source : Dvd PAL
Genre : Crime | Horror | Mystery | Thriller
IMDB Link : http://www.imdb.com/title/tt0805570/
Rating : 7.3/10
_______________________________________________________________
________________________________________________________________
Video
Format : MPEG-4 Visual
Format profile : Streaming [email protected]
Format settings, BVOP : Yes
Format settings, QPel : No
Format settings, GMC : No warppoints
Format settings, Matrix : Default
Muxing mode : Packed bitstream
Codec ID : DX50/60 | Xvid 1.2.0
Codec ID/Hint : DivX 5
Duration : 1h 33mn
Bit rate : 939 Kbps
Width : 640 pixels
Height : 272 pixels
Display aspect ratio : 2.35
Frame rate : 25.000 fps
Resolution : 24 bits
Colorimetry : 4:2:0
Scan type : Progressive
Bits/(Pixel*Frame) : 0.216
Stream size : 631 MiB (99%)
Writing library : XviD 1.2.0.dev47
_______________________________________________________________
Audio
Format : MPEG Audio
Format version : Version 1
Format profile : Layer 3
Codec ID : 55
Codec ID/Hint : MP3
Duration : 1h 33mn
Bit rate mode : Constant
Bit rate : 128 Kbps
Channel(s) : 2 channels
Sampling rate : 48.0 KHz
Resolution : 16 bits
Stream size : 85.9 MiB (12%)
Alignment : Aligned on interleaves
Interleave, duration : 40 ms (1.00 video frame)
Interleave, preload duration : 504 ms
_______________________________________________________________
________________
Description
________________
_______________________________________________________________
Photographer Leon goes into the city's subway system at night
to take photographs. He saves a woman who is attacked by a gang
by pointing out the videocamera. This young woman goes missing
by the next day. Leon later finds clues in the photos he has
taken that lead him to discover that butcher Mahogany is
involved and may be a serial killer, and that there have been
people going missing in the subway for at least a hundred
years. Leon's involvement quickly turns into a dark obsession,
_______________________________________________________________

___________________
Notes
___________________
_______________________________________________________________
Be aware People are starting to use my tag to create fake files
Make sure its a real genuine release from me, I have never and
will never do Cams,Telesyncs,Telecine. I have never and will
never do Rar files. Try to check 1337x.org to see if the file
exist. Fuck the fakers and enjoy my release.
_______________________________________________________________
___________________
Post Information
___________________
_________________________________
Posted by............: Noir
Posted on............: 10/04/2008
_________________________________
[/code]
The Midnight Meat Train (2008) [R5] [Eng] [Xvid] {1337x} Noir preview 5

The Midnight Meat Train (2008) [R5] [Eng] [Xvid] {1337x} Noir preview 6

related torrents

Torrent name

health leech seeds Size
 

comments (0)

Main Menu