Horror

The Legend Of The Bog AC3 5,1 DVDRip[Eng]2009

  • Download 5x Faster
  • Download torrent
  • Direct Download
  • Rate this torrent +  |  -
The Legend Of The Bog AC3 5,1 DVDRip[Eng]2009

Anonymous and Free Direct Download 300GB+


Torrent info

Name:The Legend Of The Bog AC3 5,1 DVDRip[Eng]2009

Total Size: 1.39 GB

Magnet: Magnet Link

Seeds: 9

Leechers: 3

Stream: Watch Online @ Movie4u

Last Updated: 2010-11-08 13:01:20 (Update Now)

Torrent added: 2009-08-28 04:19:57



VPN For Torrents

Torrent Files List


The Legend Of The Bog-AC3-5,1-DVDRip[Eng]2009.avi (Size: 1.39 GB) (Files: 3)

 The Legend Of The Bog-AC3-5,1-DVDRip[Eng]2009.avi

1.39 GB

 The Legend Of The Bog-AC3-5,1-DVDRip[Eng]2009.txt

2.38 KB

 Torrent downloaded from Demonoid.com.txt

0.05 KB
 

Announce URL: http://inferno.demonoid.com:3415/announce

Torrent description

http://www.imdb.com/title/tt0928375/

http://www.bogbodiesthemovie.com/

User Rating: (awaiting 5 votes)

Horror,Thriller

Director:Brendan Foley

Cast:Vinnie Jones/Jason Barry/Nora-Jane Noone/Adam Fogerty, and others.

Plot:
When a 2000 year old murder victim's body is disturbed by a property developer in Ireland, it returns to life and does
battle with a cast of Irish, English and American characters...

Info:

General
Format : AVI
Format/Info : Audio Video Interleave
File size : 1.39 GiB
Duration : 1h 31mn
Overall bit rate : 2 164 Kbps
Writing application : VirtualDubMod 1.5.4.1 (build 2178/release)
Writing library : VirtualDubMod build 2178/release

Video
Format : MPEG-4 Visual
Format profile : [email protected]
Format settings, BVOP : No
Format settings, QPel : No
Format settings, GMC : No warppoints
Format settings, Matrix : Default
Codec ID : XVID
Codec ID/Hint : XviD
Duration : 1h 31mn
Bit rate : 1 709 Kbps
Width : 720 pixels
Height : 416 pixels
Display aspect ratio : 16/9
Frame rate : 23.976 fps
Resolution : 24 bits
Colorimetry : 4:2:0
Scan type : Progressive
Bits/(Pixel*Frame) : 0.238
Stream size : 1.10 GiB (79%)
Writing library : XviD 50

Audio
Format : AC-3
Format/Info : Audio Coding 3
Codec ID : 2000
Duration : 1h 31mn
Bit rate mode : Constant
Bit rate : 448 Kbps
Channel(s) : 6 channels
Channel positions : Front: L C R, Surround: L R, LFE
Sampling rate : 48.0 KHz
Stream size : 294 MiB (21%)
Alignment : Split accross interleaves
Interleave, duration : 83 ms (2.00 video frames)
Interleave, preload duration : 500 ms
Language : English

Enjoy....

related torrents

Torrent name

health leech seeds Size
 


comments (0)

Main Menu