Horror

The Last House On The Left [1972] (AC 3 Audio)

  • Download 5x Faster
  • Download torrent
  • Direct Download
  • Rate this torrent +  |  -
The Last House On The Left [1972] (AC 3 Audio)

Free and Direct Download with Usenet 300GB+ free


Torrent info

Name:The Last House On The Left [1972] (AC 3 Audio)

Total Size: 899.39 MB

Magnet: Magnet Link

Seeds: 0

Leechers: 0

Stream: Watch Online @ Movie4u

Last Updated: 2015-09-07 17:50:50 (Update Now)

Torrent added: 2009-08-28 04:18:17




Torrent Files List


Last House On The Left.avi (Size: 899.39 MB) (Files: 1)

 Last House On The Left.avi

899.39 MB
 

tracker

leech seeds
 

Torrent description

Bold, powerful and starkly realistic, this chilling cinematic debut of horror master Wes Craven is a shocking journey into the heart of evil. Written and directed with "almost unbearable dramatic tension" (Chicago Sun Times), The Last House on the Left will make you deadbolt your doors and frantically mutter: "It's only a movie? it's only a movie? it's only a movie.!"

Easy going Mari Collingwood and her fun loving friend Phyllis are on their way to a Bloodlust concert to celebrate Mari's 17th birthday when three escaped convicts kidnap and torture them. But Mari and Phyllis are fighters, and although they are drugged and beaten into unconsciousness, stuffed in a car trunk and driven into the woods for even more brutality, they are still alive?. But for how long?


Trivia:
When fledgling director Wes Craven took this film to the MPAA, they slapped it with an "X" rating. Wanting an R for wider release, Craven went back and removed ten minutes of footage. However, this still wasn't enough and the film still got an "X" rating. Once again Craven removed footage, this time taking out 20 minutes. It still wasn't enough. Finally, Craven put all of the original footage back in, got an authentic "RATED R" seal of approval from the film board from a friend of his, put it on the film and released it.



General
Complete name : Last House On The Left.avi
Format : AVI
Format/Info : Audio Video Interleave
File size : 899 MiB
Duration : 1h 20mn
Overall bit rate : 1 568 Kbps
Writing application : VirtualDubMod 1.5.4.1 (build 2178/release)
Writing library : VirtualDubMod build 2178/release

Video
Format : MPEG-4 Visual
Format profile : Streaming [email protected]
Format settings, BVOP : Yes
Format settings, QPel : No
Format settings, GMC : No warppoints
Format settings, Matrix : Custom
Codec ID : XVID
Codec ID/Hint : XviD
Duration : 1h 20mn
Bit rate : 1 113 Kbps
Width : 608 pixels
Height : 336 pixels
Display aspect ratio : 16/9
Frame rate : 25.000 fps
Resolution : 24 bits
Colorimetry : 4:2:0
Scan type : Progressive
Bits/(Pixel*Frame) : 0.218
Stream size : 638 MiB (71%)
Writing library : XviD 1.2.1 (UTC 2008-12-04)

Audio
Format : AC-3
Format/Info : Audio Coding 3
Codec ID : 2000
Duration : 1h 20mn
Bit rate mode : Constant
Bit rate : 448 Kbps
Channel(s) : 6 channels
Channel positions : Front: L C R, Surround: L R, LFE
Sampling rate : 48.0 KHz
Stream size : 257 MiB (29%)
Alignment : Aligned on interleaves
Interleave, duration : 96 ms (2.40 video frames)
Interleave, preload duration : 96 ms


Please help your fellow pirates by seeding after download!

related torrents

Torrent name

health leech seeds Size
 

comments (0)

Main Menu