Horror

The last house on the left (2009) (Dutchsubs HC) WaRlOrD

  • Download 5x Faster
  • Download torrent
  • Direct Download
  • Rate this torrent +  |  -

Torrent info

Name:The last house on the left (2009) (Dutchsubs HC) WaRlOrD

Total Size: 691.73 MB

Magnet: Magnet Link

Seeds: 0

Leechers: 0

Stream: Watch Online @ Movie4u

Last Updated: 2009-11-30 13:55:11 (Update Now)

Torrent added: 2009-08-28 04:13:39



VPN For Torrents

Torrent Files List


The.last.house.on.the.left.(2009).(Dutchsubs-HC)-WaRlOrD.avi (Size: 691.73 MB) (Files: 2)

 The.last.house.on.the.left.(2009).(Dutchsubs-HC)-WaRlOrD.avi

691.73 MB

 WaRlOrD.txt

2.23 KB
 

Announce URL: http://tracker.openbittorrent.com:80/announce

Torrent description

WaRlOrD presents: The last house on the left.

Na twee jonge vrouwen gekidnapt en geslagen te hebben, komt een bende - geleid door een voortvluchtige gevangene - per ongeluk terecht in het vakantiehuis van de ouders van een van de slachtoffers. Moeder en vader zinnen op een gruwelijke wraak...

Format : AVI
Format/Info : Audio Video Interleave
File size : 692 MiB
Duration : 1h 53mn
Overall bit rate : 851 Kbps
Writing application : FairUse Wizard - http://fairusewizard.com
Writing library : The best and REALLY easy backup tool

Video
ID : 0
Format : MPEG-4 Visual
Format profile : Advanced [email protected]
Format settings, BVOP : Yes
Format settings, QPel : No
Format settings, GMC : No warppoints
Format settings, Matrix : Default (H.263)
Muxing mode : Packed bitstream
Codec ID : XVID
Codec ID/Hint : XviD
Duration : 1h 53mn
Bit rate : 713 Kbps
Width : 544 pixels
Height : 288 pixels
Display aspect ratio : 1.889
Frame rate : 23.976 fps
Resolution : 24 bits
Colorimetry : 4:2:0
Scan type : Progressive
Bits/(Pixel*Frame) : 0.190
Stream size : 580 MiB (84%)
Writing library : XviD 1.2.0.dev47 (UTC 2006-11-01)

Audio
ID : 1
Format : MPEG Audio
Format version : Version 1
Format profile : Layer 3
Codec ID : 55
Codec ID/Hint : MP3
Duration : 1h 53mn
Bit rate mode : Constant
Bit rate : 128 Kbps
Channel(s) : 2 channels
Sampling rate : 48.0 KHz
Resolution : 16 bits
Stream size : 104 MiB (15%)
Alignment : Aligned on interleaves
Interleave, duration : 42 ms (1.00 video frame)
Interleave, preload duration : 504 ms
Writing library : LAME3.97
Encoding settings : -m j -V 4 -q 2 -lowpass 17 -b 128

related torrents

Torrent name

health leech seeds Size
 


comments (0)

Main Menu