Horror

The Haunting in Connecticut AC3 5,1 DVDRip[Eng]2009

  • Download 5x Faster
  • Download torrent
  • Direct Download
  • Rate this torrent +  |  -
The Haunting in Connecticut AC3 5,1 DVDRip[Eng]2009

Free and Direct Download with Usenet 300GB+ free


Torrent info

Name:The Haunting in Connecticut AC3 5,1 DVDRip[Eng]2009

Total Size: 1.37 GB

Magnet: Magnet Link

Seeds: 5

Leechers: 1

Stream: Watch Online @ Movie4u

Last Updated: 2010-10-07 06:03:27 (Update Now)

Torrent added: 2009-08-28 04:02:48




Torrent Files List


The Haunting in Connecticut-AC3-5,1-DVDRip[Eng]2009-CD1.jpg (Size: 1.37 GB) (Files: 5)

 The Haunting in Connecticut-AC3-5,1-DVDRip[Eng]2009-CD1.jpg

447.47 KB

 The Haunting in Connecticut-AC3-5,1-DVDRip[Eng]2009-Front.jpg

2.18 MB

 The Haunting in Connecticut-AC3-5,1-DVDRip[Eng]2009.avi

1.36 GB

 The Haunting in Connecticut-AC3-5,1-DVDRip[Eng]2009.txt

2.91 KB

 Torrent downloaded from Demonoid.com.txt

0.05 KB
 

Announce URL: http://inferno.demonoid.com:3415/announce

Torrent description

http://www.imdb.com/title/tt0492044/

http://www.hauntinginconnecticut.com/

User Rating:5.8/10 - 3,560 votes

Horror/Thriller

Director:Peter Cornwell

Cast:Virginia Madsen/Kyle Gallner/Elias Koteas/Amanda Crew, and others.

Plot:
Based on a true story, The Haunting in Connecticut charts one family's real-life encounter with the dark forces of the supernatural. When the
Campbell family moves to upstate Connecticut, they soon learn that their charming Victorian home has a disturbing history: not only was the
house a transformed funeral parlor where inconceivable acts occurred, but the owner's clairvoyant son Jonah served as a demonic messenger,
providing a gateway for spiritual entities to crossover. Now unspeakable terror awaits when Jonah, the boy who communicated with the dead,
returns to unleash horror on the innocent and unsuspecting family...

Info:

Covers included.

General
Complete name : The Haunting in Connecticut-AC3-5,1-DVDRip[Eng]2009.avi
Format : AVI
Format/Info : Audio Video Interleave
File size : 1.36 GiB
Duration : 1h 42mn
Overall bit rate : 1 904 Kbps
Writing application : VirtualDubMod 1.5.4.1 (build 2178/release)
Writing library : VirtualDubMod build 2178/release

Video
Format : MPEG-4 Visual
Format profile : [email protected]
Format settings, BVOP : No
Format settings, QPel : No
Format settings, GMC : No warppoints
Format settings, Matrix : Default
Codec ID : XVID
Codec ID/Hint : XviD
Duration : 1h 42mn
Bit rate : 1 447 Kbps
Width : 720 pixels
Height : 304 pixels
Display aspect ratio : 2.35
Frame rate : 23.976 fps
Resolution : 24 bits
Colorimetry : 4:2:0
Scan type : Progressive
Bits/(Pixel*Frame) : 0.276
Stream size : 1.04 GiB (76%)
Writing library : XviD 1.1.2 (UTC 2006-11-01)

Audio
Format : AC-3
Format/Info : Audio Coding 3
Codec ID : 2000
Duration : 1h 42mn
Bit rate mode : Constant
Bit rate : 448 Kbps
Channel(s) : 6 channels
Channel positions : Front: L C R, Surround: L R, LFE
Sampling rate : 48.0 KHz
Stream size : 328 MiB (24%)
Alignment : Split accross interleaves
Interleave, duration : 42 ms (1.00 video frame)
Interleave, preload duration : 500 ms

Enjoy...

related torrents

Torrent name

health leech seeds Size
 

comments (0)

Main Menu