Movies

Chaos

  • Download 5x Faster
  • Download torrent
  • Direct Download
  • Rate this torrent +  |  -
Chaos

Anonymous and Direct Download 300GB+ free


Torrent info

Name:Chaos

Total Size: 522.00 MB

Magnet: Magnet Link

Seeds: 0

Leechers: 0

Stream: Watch Online @ Movie4u

Last Updated: 2010-03-18 08:02:20 (Update Now)

Torrent added: 2010-03-17 08:20:30

Alternatives:Chaos Torrents




Torrent Files List


Supervisory Skills.zip (Size: 187.98 MB) (Files: 1)

 Supervisory Skills.zip

187.98 MB
 

Announce URL: http://tracker.openbittorrent.com/announce

Torrent description

In Seattle, detective Quentin Conners is unfairly suspended and his partner Jason York leaves the police force after a tragic shooting on Pearl Street Bridge, when the hostage and the criminal die. During a bank heist with a hostage situation, Conners is assigned in charge of the operation with the rookie Shane Dekker as his partner. The thieves, lead by Lorenz, apparently do not steal a penny from the bank. While chasing the gangsters, the police team disclose that they planted a virus in the system, stealing one billion dollars from the different accounts, using the principle of the Chaos Theory. Further, they find that Lorenz is killing his accomplices.





Format : AVI

Format/Info : Audio Video Interleave

File size : 523 MiB

Duration : 1h 42mn

Overall bit rate : 716 Kbps

Writing application : MEncoder SVN-r29352(20090610-gcc4.3.3)

Writing library : MPlayer



Video

Format : avc1

Codec ID : avc1

Duration : 1h 42mn

Bit rate : 576 Kbps

Width : 480 pixels

Height : 360 pixels

Display aspect ratio : 4:3

Frame rate : 25.000 fps

Bits/(Pixel*Frame) : 0.133

Stream size : 420 MiB (80%)



Audio

ID : 1

Format : MPEG Audio

Format version : Version 1

Format profile : Layer 3

Mode : Joint stereo

Format_Settings_ModeExtension : MS Stereo

Codec ID : 55

Codec ID/Hint : MP3

Duration : 1h 42mn

Bit rate mode : Constant

Bit rate : 128 Kbps

Channel(s) : 2 channels

Sampling rate : 44.1 KHz

Stream size : 93.5 MiB (18%)

Alignment : Aligned on interleaves

Interleave, duration : 26 ms (0.65 video frame)

Interleave, preload duration : 522 ms

Writing library : LAME3.98





related torrents

Torrent name

health leech seeds Size
 


comments (0)

Main Menu