Horror

The Devil's Rejects (2005) DVDRip (AC 3, 5 1)

  • Download 5x Faster
  • Download torrent
  • Direct Download
  • Rate this torrent +  |  -
The Devil's Rejects (2005) DVDRip (AC 3, 5 1)

Free and Direct Download with Usenet 300GB+ free


Torrent info

Name:The Devil's Rejects (2005) DVDRip (AC 3, 5 1)

Total Size: 1.07 GB

Magnet: Magnet Link

Seeds: 0

Leechers: 0

Stream: Watch Online @ Movie4u

Last Updated: 2011-03-28 23:30:46 (Update Now)

Torrent added: 2009-08-28 03:24:35




Torrent Files List


The Devils Rejects (2005) - [akhiugo].avi (Size: 1.07 GB) (Files: 1)

 The Devils Rejects (2005) - [akhiugo].avi

1.07 GB
 

Announce URL:

Torrent description

Hell doesn't want them. Hell doesn't need them. Hell doesn't love them. This world rejects them.

Sequel to 'House of 1000 Corpses' is set some months later with the Texas State Police making a full-scale attack against the murderous Firefly family residence for the 1,000+ murders and disappearances of the past several years. But three of the family members escape, including Otis, Baby Firefly and Baby's father Captain Spaulding. The evil trio go on a road trip, leaving dozens of mangled bodies in their wake. Evading a massive Texas Rangers dragnet as well as a group of equally murderous bounty hunters led by Ken Dwyer (the brother of a policeman Mamma Firefly killed in 'House of...') who's obsessed with finding the deadly killers, the surviving Firefly clan gather at a run-down amusement park owned by Captain Spaulding's half-brother, Charlie Altamont, whom offers them shelter and a new base of operations for their killing spree as Sheriff Dwyer, the Texas Rangers, the FBI and others slowly close in.


IMDB Rating: 6.9/10 (29,131 votes)

-----------------------------------------------------------------------------

General
Complete name : The Devils Rejects (2005) - [akhiugo].avi
Format : AVI
Format/Info : Audio Video Interleave
File size : 1.07 GiB
Duration : 1h 44mn
Overall bit rate : 1 472 Kbps
Writing application : VirtualDubMod 1.5.4.1 (build 2178/release)
Writing library : VirtualDubMod build 2178/release

Video
Format : MPEG-4 Visual
Format profile : Streaming [email protected]
Format settings, BVOP : Yes
Format settings, QPel : No
Format settings, GMC : No warppoints
Format settings, Matrix : Custom
Codec ID : XVID
Codec ID/Hint : XviD
Duration : 1h 44mn
Bit rate : 1 017 Kbps
Width : 608 pixels
Height : 352 pixels
Display aspect ratio : 16/9
Frame rate : 25.000 fps
Resolution : 24 bits
Colorimetry : 4:2:0
Scan type : Progressive
Bits/(Pixel*Frame) : 0.190
Stream size : 760 MiB (69%)
Writing library : XviD 1.2.1 (UTC 2008-12-04)

Audio
Format : AC-3
Format/Info : Audio Coding 3
Codec ID : 2000
Duration : 1h 44mn
Bit rate mode : Constant
Bit rate : 448 Kbps
Channel(s) : 6 channels
Channel positions : Front: L C R, Surround: L R, LFE
Sampling rate : 48.0 KHz
Stream size : 335 MiB (30%)
Alignment : Aligned on interleaves
Interleave, duration : 96 ms (2.40 video frames)
Interleave, preload duration : 96 ms

-------------------------------------------------------------------------------


Please help your fellow pirates by seeding after download!

related torrents

Torrent name

health leech seeds Size
 

comments (0)

Main Menu