Horror

The Creek DVDRip XviD AC3 5rFF

  • Download 5x Faster
  • Download torrent
  • Direct Download
  • Rate this torrent +  |  -
The Creek DVDRip XviD AC3 5rFF

Free and Direct Download with Usenet.nl 300GB+ free


Torrent info

Name:The Creek DVDRip XviD AC3 5rFF

Total Size: 1.00 GB

Magnet: Magnet Link

Seeds: 0

Leechers: 0

Stream: Watch Online @ Movie4u

Last Updated: 2009-11-30 12:58:41 (Update Now)

Torrent added: 2009-08-28 03:16:16





Torrent Files List


5rFF-creek.avi (Size: 1.00 GB) (Files: 3)

 5rFF-creek.avi

0.98 GB

 NFO.txt

2.00 KB

 Sample

  5rFF-creek-sample.avi

20.46 MB
 

Announce URL: http://www.trademark-torrents.com/announce.php

Torrent description

http://www.imdb.com/title/tt1087438/



On the fifth anniversary of the death of their friend Billy, six friends are forced back together by his ghost. Billy's death was officially considered an accident but old suspicions and conflicts return. When people start dying they all must ask themselves if it's his ghost, one of them, or because they returned to The Creek?







General

Complete name : 5rFF-creek.avi

Format : AVI

Format/Info : Audio Video Interleave

File size : 1 008 MiB

Duration : 1h 25mn

Overall bit rate : 1 648 Kbps

Writing application : VirtualDubMod 1.5.4.1 (build 2178/release)

Writing library : VirtualDubMod build 2178/release



Video

Format : MPEG-4 Visual

Format profile : Streaming [email protected]

Format settings, BVOP : No

Format settings, QPel : No

Format settings, GMC : No warppoints

Format settings, Matrix : Custom

Codec ID : XVID

Codec ID/Hint : XviD

Duration : 1h 25mn

Bit rate : 1 450 Kbps

Width : 720 pixels

Height : 400 pixels

Display aspect ratio : 16/9

Frame rate : 23.976 fps

Resolution : 24 bits

Colorimetry : 4:2:0

Scan type : Progressive

Bits/(Pixel*Frame) : 0.210

Stream size : 887 MiB (88%)

Writing library : XviD 50



Audio

Format : AC-3

Format/Info : Audio Coding 3

Codec ID : 2000

Duration : 1h 25mn

Bit rate mode : Constant

Bit rate : 192 Kbps

Channel(s) : 4 channels

Channel positions : Front: L R, Rear: C, LFE

Sampling rate : 48.0 KHz

Stream size : 117 MiB (12%)

Alignment : Split accross interleaves

Interleave, duration : 96 ms (2.30 video frames)

Interleave, preload duration : 96 ms

related torrents

Torrent name

health leech seeds Size
 

comments (0)

Main Menu