Horror

The Children 2008 DVDrip oddball ENG

  • Download 5x Faster
  • Download torrent
  • Direct Download
  • Rate this torrent +  |  -
The Children 2008 DVDrip oddball ENG

Anonymous and Free Direct Download 300GB+


Torrent info

Name:The Children 2008 DVDrip oddball ENG

Total Size: 862.34 MB

Magnet: Magnet Link

Seeds: 0

Leechers: 0

Stream: Watch Online @ Movie4u

Last Updated: 2010-09-22 09:04:58 (Update Now)

Torrent added: 2009-08-28 03:10:43



VPN For Torrents

Torrent Files List


Cover.jpg (Size: 862.34 MB) (Files: 3)

 Cover.jpg

3.92 KB

 Reed Me .txt

0.06 KB

 The Children - 2008 DVDrip oddball-ENG.avi

862.33 MB
 

Announce URL: http://tracker.thepiratebay.org/announce

Torrent description

... :::::::-. :::::::-. :::::::. :::. ::: :::
.;;;;;;;. ;;, `';, ;;, `';, ;;;'';;' ;;`;; ;;; ;;;
,[[ [[, `[[ [[ `[[ [[ [[[__[[. ,[[ '[[, [[[ [[[
$$$, $$$ $$, $$ $$, $$ $$""""Y$$$$$ $$' $$'
"888,_ _,88P 888_,o8P' 888_,o8P' _88o,,od8P 888 888,o88oo,.__o88oo,.__
"YMMMMMP" MMMMP"` MMMMP"` ""YUMMMP" YMM ""` """"YUMMM""""YUMMM `

Tom Shankland’s new horror film The Children is about “a relaxing Christmas
vacation turns into a terrifying fight for survival as the children begin
to turn on their parents.” Not many films do the whole evil children thing
right, but this one looks like it might actually be fun. The movie stars
Rachel Shelley (Ghost Whisperer), Stephen Campbell Moore (The Bank Job),
Eva Birthistle (Imagine Me & You), Eva Sayer, Jeremy Sheffield (Creep). ` Screen Shots The Children   2008 DVDrip oddball ENG preview 0
The Children   2008 DVDrip oddball ENG preview 1
The Children   2008 DVDrip oddball ENG preview 2
The Children   2008 DVDrip oddball ENG preview 3

General
Complete name : The Children - 2008
Format : AVI
Format/Info : Audio Video Interleave
File size : 862 MiB
Duration : 1h 20mn
Overall bit rate : 1 491 Kbps

Video
Format : MPEG-4 Visual
Format profile : Streaming [email protected]
Format settings, BVOP : Yes
Format settings, QPel : No
Format settings, GMC : No warppoints
Format settings, Matrix : Default
Muxing mode : Packed bitstream
Codec ID : XVID
Codec ID/Hint : XviD
Duration : 1h 20mn
Bit rate : 1 287 Kbps
Width : 1 024 pixels
Height : 582 pixels
Display aspect ratio : 16/9
Frame rate : 29.970 fps
Resolution : 24 bits
Colorimetry : 4:2:0
Scan type : Progressive
Bits/(Pixel*Frame) : 0.072
Stream size : 744 MiB (86%)
Writing library : XviD 1.2.1 (UTC 2008-12-04)

Audio
Format : MPEG Audio
Format version : Version 1
Format profile : Layer 3
Codec ID : 55
Codec ID/Hint : MP3
Duration : 1h 20mn
Bit rate mode : Constant
Bit rate : 192 Kbps
Channel(s) : 2 channels
Sampling rate : 44.1 KHz
Resolution : 16 bits
Video delay : 26ms
Stream size : 111 MiB (13%)
Alignment : Split accross interleaves
Interleave, duration : 33 ms (1.00 video frame)
Title : Audio Stream ` Please seed after downloading ` :::=== :::===== :::===== :::==== :::= === :::==== :::====
::: ::: ::: ::: === :::===== ::: === :::====
===== ====== ====== === === ======== === === ===
=== === === === === === ==== === === ===
====== ======== ======== ======= === === ====== ===

:::===== :::==== :::===== :::===== :::====
::: ::: === ::: ::: ::: ===
=== ===== ======= ====== ====== === ===
=== === === === === === === ===
======= === === ======== ======== =======

related torrents

Torrent name

health leech seeds Size

21 2008 DVDrip oddball ENG

2 8 973.10 MB 0
 


comments (0)

Main Menu