Horror

The Burning (1981) [DVDRip] [KooKoo] [h33t com]

  • Download 5x Faster
  • Download torrent
  • Direct Download
  • Rate this torrent +  |  -
The Burning (1981) [DVDRip] [KooKoo] [h33t com]

Anonymous and Free Direct Download 300GB+


Torrent info

Name:The Burning (1981) [DVDRip] [KooKoo] [h33t com]

Total Size: 772.62 MB

Magnet: Magnet Link

Seeds: 0

Leechers: 0

Stream: Watch Online @ Movie4u

Last Updated: 2015-09-19 21:31:07 (Update Now)

Torrent added: 2009-08-28 03:03:06



VPN For Torrents

Torrent Files List


KooKoo.txt (Size: 772.62 MB) (Files: 8)

 KooKoo.txt

15.60 KB

 MoviePoster

  401951.1020.A.jpg

225.16 KB

 Sample

  Sample.avi

10.02 MB

 Screenshots

  thumbs20080604221338.jpg

315.05 KB

 Subtitles

  The Burning (1981) [DVDRip] [KooKoo] [h33t_com].idx

236.89 KB

  The Burning (1981) [DVDRip] [KooKoo] [h33t_com].sub

18.38 MB

 The Burning (1981) [DVDRip] [KooKoo] [h33t_com].avi

743.45 MB

 tracked_by_h33t_com.txt

0.02 KB
 

tracker

leech seeds
 

Torrent description

The Burning (1981)
_______________________________________________________________________________________________________________________

Genre: Horror

_______________________________________________________________________________________________________________________
Synopsis:

A group of summer camp pranksters get the scare of their lives when they target the camp\'s creepy
caretaker... and he takes bloody revenge! \"Gruesome\" (The Hollywood Reporter) and
\"stomach-churning\" (Boxoffice), this terrifying tale is \"a brilliant slasher flick [and] gory as hell!\"
(slasherpool.com).

After a cruel joke goes awry, severely burning him and subjecting him to five years of intensive,
unsuccessful skin graft treatments, Cropsy (Lou David) is back at camp... and ready to wreak havoc on
those who scarred him! With his hedge clippers in hand, he terrorizes the camp and systematically
mutilates each victim. Can a few courageous campers save themselves and destroy this demented
madman before he kills them all?
________________________________________________________________________________________________________________________
IMDB URL: http://www.imdb.com/title/tt0082118/

________________________________________________________________________________________________________________________
DVD source Information:

MGM / UA ~ R ~ 91mins. ~ Release Date: 9/11/2007 ~ Prod Year: 1981

http://www.dvdempire.com/Exec/v4_item.asp?userid=99366342292132&item_id=1361488&searchID=325786
_________________________________________________________________________________________________________________________


_________________________________________________________________________________________________________________________

File Verified With MediaInfo:
-----------------------------------------------------------------------------------------------------------------------------
General
General
Complete name : The Burning (1981) [DVDRip] [KooKoo] [h33t_com].avi
Format : AVI
Format/Info : Audio Video Interleave
File size : 743 MiB
Duration : 1h 31mn
Overal bit rate : 1137 Kbps
Movie name : The Burning \"a.k.a\" \"Cropsy\"
Director : Ripped By KooKoo
Writing application : Lavf51.19.0
Product : DVD_VOLUME

Video
Format : MPEG-4 Visual
Format profile : [email protected]
Format settings, BVOP : No
Format settings, QPel : No
Format settings, GMC : No warppoints
Format settings, Matrix : Default
Codec ID : XVID
Codec ID/Hint : XviD
Duration : 1h 31mn
Bit rate : 996 Kbps
Width : 608 pixels
Height : 340 pixels
Display aspect ratio : 16/9
Frame rate : 23.976 fps
Resolution : 8 bits
Colorimetry : 4:2:0
Scan type : Progressive
Bits/(Pixel*Frame) : 0.201
Stream size : 651 MiB
Writing library : XviD 1.1.2 (UTC 2006-11-01)

Audio
Format : MPEG Audio
Format version : Version 1
Format profile : Layer 3
Codec ID : 55
Codec ID/Hint : MP3
Duration : 1h 31mn
Bit rate mode : Constant
Bit rate : 128 Kbps
Channel(s) : 2 channels
Sampling rate : 48.0 KHz
Resolution : 16 bits
Stream size : 83.7 MiB
Writing library : LAME3.97




This Film is in English.
This Film Has Spanish, French, and English Subtitles


Ripped by KooKoo, tracked by h33t_com

related torrents

Torrent name

health leech seeds Size

The Burning 1981 UNCUT

0 0 4.17 GB 0
 


comments (0)

Main Menu