Horror

The Breed Unrated 2006 720p BluRay x264

  • Download 5x Faster
  • Download torrent
  • Direct Download
  • Rate this torrent +  |  -
The Breed Unrated 2006 720p BluRay x264

Free and Direct Download with Usenet 300GB+ free


Torrent info

Name:The Breed Unrated 2006 720p BluRay x264

Total Size: 4.08 GB

Magnet: Magnet Link

Seeds: 0

Leechers: 1

Stream: Watch Online @ Movie4u

Last Updated: 2015-08-10 19:24:22 (Update Now)

Torrent added: 2009-08-28 03:00:59




Torrent Files List


The.Breed.Unrated.mkv (Size: 4.08 GB) (Files: 1)

 The.Breed.Unrated.mkv

4.08 GB
 

tracker

leech seeds
 

Torrent description

The.Breed.Unrated.2006.720p.BluRay.x264



Fünf Jugendliche fliegen mit ihrem Wasserflugzeug auf ein Eiland,
um dort in einem seit einigen Jahren unbewohnten Strandhaus einige
gemütliche Tage zu verbringen. Bereits in der ersten Nacht wird eines
der Mädchen von einem Hund angefallen und gebissen. Noch messen sie
diesem Zwischenfall keine besondere Bedeutung bei. Doch als am
folgenden Tag ein anderer Inselbesucher vor ihren Augen von den
Hunden zerfetzt wird, schlägt die Stimmung schlagartig um.
Offensichtlich wurde die auf der anderen Inselseite vor einem
Jahr stillgelegte Hundezucht nicht nur für genetische Experimente
missbraucht, auch konnten einige Hunde rechtzeitig vor der Schließung
aus der Zuchtanlage fliehen. Die blutrünstigen Kampfhunde verhindern,
dass die jungen Leute die Insel verlassen können. Es kommt zum Kampf
Mensch gegen Tier, mit Opfern auf beiden Seiten.




Format : Matroska
File size : 4.08 GiB
Duration : 1h 27mn
Overall bit rate : 6 707 Kbps
Encoded date : UTC 2008-12-24 23:26:41
Writing application : mkvmerge v2.2.0 ('Turn It On Again') built on Mar 4 2008 12:58:26
Writing library : libebml v0.7.7 + libmatroska v0.8.1

Video
ID : 1
Format : AVC
Format/Info : Advanced Video Codec
Format profile : High@L3.1
Format settings, CABAC : Yes
Format settings, ReFrames : 5 frames
Muxing mode : Container profile=Unknown@3.1
Codec ID : V_MPEG4/ISO/AVC
Duration : 1h 27mn
Bit rate : 6 381 Kbps
Nominal bit rate : 6 244 Kbps
Width : 1 280 pixels
Height : 720 pixels
Display aspect ratio : 16/9
Frame rate : 25.000 fps
Original frame rate : 23.976 fps
Resolution : 24 bits
Colorimetry : 4:2:0
Scan type : Progressive
Bits/(Pixel*Frame) : 0.277
Stream size : 3.89 GiB (95)
Writing library : x264 core 65 r998M 6768543


Audio
ID : 2
Format : AC-3
Format/Info : Audio Coding 3
Codec ID : A_AC3
Duration : 1h 27mn
Bit rate mode : Constant
Bit rate : 192 Kbps
Channel(s) : 6 channels
Channel positions : Front: L C R, Surround: L R, LFE
Sampling rate : 48.0 KHz
Stream size : 120 MiB (3)
Language : German

related torrents

Torrent name

health leech seeds Size
 

comments (0)

Main Menu