Horror

THE BEYOND (uncut) Fulci Subs FIN SWE NO DK XviD *DM*

  • Download 5x Faster
  • Download torrent
  • Direct Download
  • Rate this torrent +  |  -
THE BEYOND (uncut) Fulci Subs FIN SWE NO DK XviD *DM*

Free and Direct Download with Usenet.nl 300GB+ free


Torrent info

Name:THE BEYOND (uncut) Fulci Subs FIN SWE NO DK XviD *DM*

Total Size: 699.79 MB

Magnet: Magnet Link

Seeds: 1

Leechers: 0

Stream: Watch Online @ Movie4u

Last Updated: 2015-09-01 07:16:13 (Update Now)

Torrent added: 2009-08-28 02:56:33





Torrent Files List


THE BEYOND.avi (Size: 699.79 MB) (Files: 8)

 THE BEYOND.avi

699.56 MB

 THE BEYOND.Danish.srt

21.52 KB

 THE BEYOND.Finnish.srt

21.61 KB

 THE BEYOND.Norwegian.srt

21.55 KB

 THE BEYOND.Swedish.srt

21.74 KB

 the_beyond_dvd_cover.jpg

57.68 KB

 Thebeyonddvd.jpg

94.83 KB

 Torrent downloaded from Demonoid.com.txt

0.05 KB
 

tracker

leech seeds
 

Torrent description

(SUOMALAINEN - Lue alempana......)

Here's a real horror / gore masterpiece presented uncut & remastered to you all. Gore effects feel so real that i really wonder how on earth they were made before the CGI computer era !!! It is truly scaringly real. This is NOT for the fainthearted then....

Lucio Fulci (director) THE BEYOND (1981) UNCUT colour

The Beyond (also known as E tu vivrai nel terrore - L'aldil? or Seven Doors of Death) is a 1981 Italian horror movie directed by Lucio Fulci. It is considered by some horror film fans to be one of the best movies made by the Italian director. The second film in Fulci's unofficial Gates of Hell trilogy (along with City of the Living Dead and The House by the Cemetery), The Beyond has gained a cult following over the decades — in part because of the film’s gore-filled murder sequences, which had been heavily censored when the film was originally released in the United States in 1983.

Movie info:
http://en.wikipedia.org/wiki/The_Beyond_(film)

DVD-RIP and subs done by me.

The rip is very good, actually/possibly better than my original DVD. Before someone sends me to hell because of this claim, please let me explain. First of all, i did a multi-pass encoding with divx 6.8 pro, and i added the filter Noise Reduction: Auto-detect on. That really made wonders - less noise but not losing detail at all. So i am very satisfied with the result. I am not taking the credits, but giving them to FairUse Wizard and Divx 6.8 pro.

ENJOY......ENJOY.....and if you enjoy this release...THEN SEED too.........

--------------------------------------------------------------------------------------------------
Divx (.avi)...................965 kbps
Audio.........................English 192 kbps AC3 (original)
Subs..........................external FIN SWE NO DK .srt - PC&TV compatible.
Aspect ratio/Resolution.......688x288 2.35 Anam.Widescreen
Bits/(Pixel*Frame) ...........0.195
------------------------------------------------------------------------------------------------------------------------

SUOMEKSI:

Divx(.avi)-rippaus tuttuun tapaan omaa käsialaa ja Subit myös. Kaikki toimii tietenkin 100 % niin PC:llä kuin TV:ssäkin Dvd-Divx-soittimellasi (myös tekstit). Tekstit tein myös itse - siksi toimii kuin unelma...
ja please... auta ... seedaa ... etenkin jos pidät filmistä...

Ohjaaja: Lucio Fulci
Juoni:
Italialainen kauhuohjaaja Lucio Fulci yhdistää kauhun, zombit ja helvetin The Beyond elokuvassaan, joka iästään huolimatta on yksi parhaimpia kauhupätkiä, eikä aika ole kohdellut sitä ollenkaan kaltoin. The Beyond on parhaimpia kauhuelokuvia, mitä on tehty, ja onkin Fulcin yksi parhaimpia mestariteoksia. Elokuvan musiikki on yksi tunnelman luojia, ja Fulci hoitaa loput, joihin kuuluu zombit, kauhu ja helvetti! # Plot Synopsis: Nainen saa perinnöksi hotellin. Hotelli sattuu olemaan portti helvettiin. Helvetti on täynnä nälkäisiä zombeja. Fulci ohjaa.

----------------------------------------------------------------------------------
LOG:

General
Complete name : H:AVI movies 5.1 sound XviD DivX ac-3THE BEYOND (uncut) Fulci Subs FIN SWE NO DK XviD-DMTHE BEYOND.avi
Format : AVI
Format/Info : Audio Video Interleave
File size : 700 MiB
Duration : 1h 23mn
Overall bit rate : 1 167 Kbps
Writing application : FairUse Wizard - http://fairusewizard.com
Writing library : The best and REALLY easy backup tool

Video
Format : MPEG-4 Visual
Format settings, BVOP : Yes
Format settings, QPel : No
Format settings, GMC : No warppoints
Format settings, Matrix : Default (H.263)
Muxing mode : Packed bitstream
Codec ID : DX50
Codec ID/Hint : DivX 5
Duration : 1h 23mn
Bit rate : 965 Kbps
Width : 688 pixels
Height : 288 pixels
Display aspect ratio : 2.35
Frame rate : 25.000 fps
Resolution : 24 bits
Colorimetry : 4:2:0
Scan type : Progressive
Bits/(Pixel*Frame) : 0.195
Stream size : 579 MiB (83%)
Writing library : DivX 6.8.0 (UTC 2007-12-04)

Audio
Format : AC-3
Format/Info : Audio Coding 3
Codec ID : 2000
Duration : 1h 23mn
Bit rate mode : Constant
Bit rate : 192 Kbps
Channel(s) : 2 channels
Channel positions : L R
Sampling rate : 48.0 KHz
Stream size : 115 MiB (16%)
Alignment : Split accross interleaves
Interleave, duration : 40 ms (1.00 video frame)
Interleave, preload duration : 500 ms

related torrents

Torrent name

health leech seeds Size
 

comments (0)

Main Menu