TEETH aka Vagina Dentata DD 5 1 Subs FIN SWE ENG XviD *DM*

  • Download 5x Faster
  • Download torrent
  • Direct Download
  • Rate this torrent +  |  -

Torrent info

Name:TEETH aka Vagina Dentata DD 5 1 Subs FIN SWE ENG XviD *DM*

Total Size: 978.46 MB

Magnet: Magnet Link

Seeds: 0

Leechers: 0

Stream: Watch Full Movie @ Movie4u

Last Updated: 0000-00-00 00:00:00 (Update Now)

Torrent added: 2009-08-28 02:48:14

CyberGhost VPN For Torrents

Torrent Files List

teeth-movie-poster1.jpg (Size: 978.46 MB) (Files: 7)


84.58 KB


977.98 MB


46.52 KB


29.09 KB


30.37 KB


193.18 KB


111.75 KB

Announce URL: http://tracker.thepiratebay.org:80/announce

Torrent description


For the last week

or so i have been experimenting with different xvid settings / codecs / bitrates /

A-B comparisons etc / many a day and even at nights sometimes, trying to

achieve the ULTIMATE in Video/Audio quality. The results are now here for the 1st

time for you to judge. So please comment on the quality !?!?

I believe this is unbeatable, well at least almost, as the video is encoded in the

slowest and best quality settings (2-pass VBR slowest encoding, quality based) AND

with the original Dolby Digital 5.1 sound left of course untouched !!!

Sure, you can always get quality by higher bitrates/filesizes, BUT that is

losing the point: the whole purpose of xvid is to try getting Dvd-quality with as

low bitrates as possible, right ? That i am trying and always with DD 5.1 sound in

the future also. So just one more thing to say...

ENJOY....ENJOY....ENJOY.... !!!

Now here is one of the greatest, sickest, meanest, funniest,

most crazy movies ever ! If you haven\'t seen this THEN DOWNLOAD HERE IMMEDIATELY !

WARNING ! Don\'t read the plot too much (it can spoil the surprises waiting to blow

you away). Just believe - this movie rocks...

TEETH (2007) aka VAGINA DENTATA. Genre: Comedy/Horror/Drama/Gore. All you need to

know :

Teenage girl angst, sexual awakening, the thought that \"is there something wrong

with me down there?\", purity vs impurity, desires of the flesh vs Sex&Marriage.

more info: http://www.imdb.com/title/tt0780622/



Dvd................ FutureFilm 2008 PAL 25 fps
Xvid............... 1 059 Kbps
Resolution......... 640x352 (16:9 Full Frame Widescreen)
Audio.............. English AC3 Dolby Digital 5.1 (Original. Brilliant)
Quality of Xvid.... Superb. Not for a moment will you think \"this is .avi\" - it
feels like watching the DVD.
Subs............... FIN SWE ENG in .srt made by me with SubRip 1.50
Standalone Player.. YES - those Subs too ! Read below in FIN and SWE


Moi kaikki! Olen käyttänyt viikon ajan tässä saadakseni laadun kaikkein korkeimmaksi jatkossa! Unohda ne axxot ja klaxxonit. Tässä on suomalaista laatua sinulle suomalainen!!!

TEETH + .srt-tekstit suomeksi (Tein kaiken itse eilen! Tekstit aiemmin). Näkyy TV:ssä Divx-Dvd-soittimella kun vain muistat nimetä filmin ja tekstityksen täsmälleen samaksi. Esim: TEETH.avi ja TEETH.srt ja tallenna ne dvd:lle ja johan toimii upeasti. Vain kaikkein uusimmat Dvd-soittimet kuten Pioneer 2008 joka minulla on, hyväksyy jopa sen että tekstiosan tallentaa näin:
TEETH.Finnish.srt (mutta vanhemmat soittimet eivät tunnista jos noin!).
----------------------------------------------------------------------------------PÅ SVENSKA: TEETH + .srt texter på svenska (Allt gjort av mig!). Kan ses på TV med din Divx-Dvd-spelare bara du minns att namnge filmen och text-filen exakt detsamma: tex. TEETH.avi och TEETH.srt och sedan bränna på DVD.
De allra nyaste DVD-spelarna som min Pioneer 2008 model, kan visa texterna även så här: TEETH.Swedish.srt (men som sagt så kan man inte göra med äldre
modeller !)

PS. ALL THIS WAS DONE BY ME YESTERDAY : DvdRip with DvdFab. Xvid conversion with

FairUse Wizard 2. Subs in FIN SWE ENG made with SubRip (and YES great .srt-files

so you can watch subs on PC & TV with your Divx-dvd-player).

AND i also added 2 DVD Covers and 1 movie posters .jpg pictures.


Complete name : H:AVI movies 5.1 sound XviD DivX ac-3TEETH vagina dentata DD.5.1 Subs FIN SWE ENG XviDTEETH_DD.5.1_XviD.avi
Format : AVI
Format/Info : Audio Video Interleave
File size : 978 MiB
Duration : 1h 30mn
Overall bit rate : 1 516 Kbps
Writing application : VirtualDubMod (build 2540/release)
Writing library : VirtualDubMod build 2540/release

Format : MPEG-4 Visual
Format profile : Streaming [email protected]
Format settings, BVOP : Yes
Format settings, QPel : No
Format settings, GMC : No warppoints
Format settings, Matrix : Default (MPEG)
Muxing mode : Packed bitstream
Codec ID : XVID
Codec ID/Hint : XviD
Duration : 1h 30mn
Bit rate : 1 059 Kbps
Width : 640 pixels
Height : 352 pixels
Display aspect ratio : 16/9
Frame rate : 25.000 fps
Resolution : 24 bits
Colorimetry : 4:2:0
Scan type : Progressive
Bits/(Pixel*Frame) : 0.188
Stream size : 683 MiB (70%)
Writing library : XviD 1.2.0.dev47 (UTC 2006-11-01)

Format : AC-3
Format/Info : Audio Coding 3
Codec ID : 2000
Duration : 1h 30mn
Bit rate mode : Constant
Bit rate : 448 Kbps
Channel(s) : 6 channels
Channel positions : Front: L C R, Surround: L R, LFE
Sampling rate : 48.0 KHz
Stream size : 289 MiB (30%)
Alignment : Split accross interleaves
Interleave, duration : 40 ms (1.00 video frame)
Interleave, preload duration : 500 ms

related torrents

Torrent name

health leech seeds Size

comments (0)

Main Menu