Horror

Switchblade Romance (2003) DVDRip Eng Subs (AC3)

  • Download 5x Faster
  • Download torrent
  • Direct Download
  • Rate this torrent +  |  -
Switchblade Romance (2003) DVDRip Eng Subs (AC3)

Free and Direct Download with Usenet.nl 300GB+ free


Torrent info

Name:Switchblade Romance (2003) DVDRip Eng Subs (AC3)

Total Size: 801.15 MB

Magnet: Magnet Link

Seeds: 9

Leechers: 7

Stream: Watch Online @ Movie4u

Last Updated: 0000-00-00 00:00:00 (Update Now)

Torrent added: 2009-08-28 02:43:42





Torrent Files List


Switchblade Romance (2003) - [akhiugo].avi (Size: 801.15 MB) (Files: 1)

 Switchblade Romance (2003) - [akhiugo].avi

801.15 MB
 

Announce URL: http://tracker.thepiratebay.org/announce

Torrent description

Switchblade Romance (2003) Widescreen - aka High Tension, Haute Tension
---------------------------------------------------------------------------------

Two female college students, Marie and Alexa, set off to Alex's parents' secluded homestead in the country to relax and study. Come nightfall, Hell pulls up at the front door when a mysterious killer breaks in and kills Alexa's father, mother, brother, and pet dog. Alex is now bound and gagged, taken off by the killer, with Marie not far behind eluding the intruder. Can she save her friend's life in time, or is everything all that it seems...?

----------------------------------------------------------------------------------

Genre: Crime | Drama | Horror | Romance | Thriller

IMDB Rating: 6.8/10 (17,324 votes)


General
Complete name : Switchblade Romance (2003) - [akhiugo].avi
Format : AVI
Language : French
Subtitles : English Hardcoded
File size : 801 MiB
Duration : 1h 26mn
Overall bit rate : 1 288 Kbps
Writing application : VirtualDubMod 1.5.4.1 (build 2178/release)
Writing library : VirtualDubMod build 2178/release

Video
Format : MPEG-4 Visual
Format profile : Streaming [email protected]
Format settings, BVOP : Yes
Format settings, QPel : No
Format settings, GMC : No warppoints
Format settings, Matrix : Custom
Codec ID : XVID
Codec ID/Hint : XviD
Duration : 1h 26mn
Bit rate : 1 025 Kbps
Width : 688 pixels
Height : 304 pixels
Display aspect ratio : 2.25
Frame rate : 25.000 fps
Resolution : 24 bits
Colorimetry : 4:2:0
Scan type : Progressive
Bits/(Pixel*Frame) : 0.196
Stream size : 638 MiB (80%)
Writing library : XviD 1.2.1 (UTC 2008-12-04)

Audio
Format : AC-3
Format/Info : Audio Coding 3
Codec ID : 2000
Duration : 1h 26mn
Bit rate mode : Constant
Bit rate : 256 Kbps
Channel(s) : 2 channels
Channel positions : L R
Sampling rate : 48.0 KHz
Stream size : 159 MiB (20%)
Alignment : Aligned on interleaves
Interleave, duration : 96 ms (2.40 video frames)
Interleave, preload duration : 96 ms


Screens:
1
2
3
4


Please help your fellow pirates by seeding after download!

related torrents

Torrent name

health leech seeds Size
 

comments (0)

Main Menu