Horror

Storm Warning 2007 DVDRIP XviD ZEKTORM

  • Download 5x Faster
  • Download torrent
  • Direct Download
  • Rate this torrent +  |  -
Storm Warning 2007 DVDRIP XviD ZEKTORM

Anonymous and free Direct Download 300GB+


Torrent info

Name:Storm Warning 2007 DVDRIP XviD ZEKTORM

Total Size: 708.06 MB

Magnet: Magnet Link

Seeds: 3

Leechers: 10

Stream: Watch Online @ Movie4u

Last Updated: 0000-00-00 00:00:00 (Update Now)

Torrent added: 2009-08-28 02:36:09



VPN For Torrents

Torrent Files List


READ.hlp (Size: 708.06 MB) (Files: 5)

 READ.hlp

11.27 KB

 Subs

  SW-ZEKTORM.idx

74.84 KB

  SW-ZEKTORM.sub

5.40 MB

 SW-ZEKTORM.avi

702.57 MB

 Torrent downloaded from Demonoid.com.txt

0.05 KB
 

Announce URL: http://inferno.demonoid.com:3413/announce

Torrent description

Title : Storm Warning
Year : 2007
Genre : Horror
iMDB URL : http://www.imdb.com/title/tt0800367/
Awards : 1 win

Complete name : SW-ZEKTORM.avi
Format : AVI
File size : 702 MiB
Duration : 1h 26mn
Overall bit rate : 1140 Kbps
Subtitles : English, Spanish (Format: VobSub)
Source : DVD NTSC

Video
Format : MPEG-4 Visual
Format profile : Streaming [email protected]
Codec ID : DX50
Codec ID/Hint : DivX 5
Duration : 1h 26mn
Bit rate : 1005 Kbps
Width : 720 pixels
Height : 416 pixels
Display aspect ratio : 16/9
Frame rate : 23.976 fps
Resolution : 24 bits
Colorimetry : 4:2:0
Scan type : Progressive
Bits/(Pixel*Frame) : 0.140
Stream size : 619 MiB (88%)
Writing library : XviD

Audio
Format : MPEG Audio
Format version : Version 1
Format profile : Layer 3
Codec ID : 55
Codec ID/Hint : MP3
Duration : 1h 26mn
Bit rate mode : Constant
Bit rate : 128 Kbps
Minimum bit rate : 128 Kbps
Channel(s) : 2 channels
Sampling rate : 48.0 KHz
Resolution : 16 bits
Stream size : 78.9 MiB (11%)
Writing library : LAME3.98r
Encoding settings : CBR

related torrents

Torrent name

health leech seeds Size
 


comments (0)

Main Menu