Horror

STEPHEN KINGS CARRIE[1976]@KIDZCORNER H 264 RIP[ENG]

  • Download 5x Faster
  • Download torrent
  • Direct Download
  • Rate this torrent +  |  -
STEPHEN KINGS CARRIE[1976]@KIDZCORNER H 264 RIP[ENG]

Anonymous and Direct Download 300GB+ free


Torrent info

Name:STEPHEN KINGS CARRIE[1976]@KIDZCORNER H 264 RIP[ENG]

Total Size: 896.69 MB

Magnet: Magnet Link

Seeds: 0

Leechers: 0

Stream: Watch Online @ Movie4u

Last Updated: 2011-05-07 03:39:38 (Update Now)

Torrent added: 2009-08-28 02:34:01




Torrent Files List


carrie.mp4 (Size: 896.69 MB) (Files: 3)

 carrie.mp4

896.66 MB

 Noname.jpg

31.07 KB

 Torrent downloaded from Demonoid.com-1.txt

0.05 KB
 

Announce URL:

Torrent description

Based on the novel by Stephen King, Carrie is the story of a young girl with telekinesis, who has the power to move objects by the force of her mind.

The school wallflower and the brunt of her classmate's jokes, Carrie's revenge is the focus of this tense and stylish horror film. Starring Sissy Spacek, John Travolta and Amy Irving.

Format : MPEG-4
Format profile : Base Media / Version 2
Codec ID : mp42
File size : 897 MiB
Duration : 1h 33mn
Overall bit rate : 1 334 Kbps
Encoded date : UTC 2009-06-04 15:29:39
Tagged date : UTC 2009-06-04 19:50:34
Writing application : HandBrake 0.9.3 2008112300

Video
Format : AVC
Format/Info : Advanced Video Codec
Format profile : [email protected]
Format settings, CABAC : Yes
Format settings, ReFrames : 3 frames
Codec ID : avc1
Codec ID/Info : Advanced Video Coding
Duration : 1h 33mn
Bit rate mode : Variable
Bit rate : 1 175 Kbps
Width : 718 pixels
Height : 414 pixels
Display aspect ratio : 1.850
Frame rate mode : Variable
Frame rate : 25.000 fps
Minimum frame rate : 12.500 fps
Maximum frame rate : 25.000 fps
Resolution : 24 bits
Colorimetry : 4:2:0
Scan type : Progressive
Bits/(Pixel*Frame) : 0.158
Stream size : 787 MiB (88%)
Writing library : x264 core 65


Audio
Format : AAC
Format/Info : Advanced Audio Codec
Format version : Version 4
Format profile : LC
Format settings, SBR : No
Codec ID : 40
Duration : 1h 33mn
Bit rate mode : Variable
Bit rate : 160 Kbps
Maximum bit rate : 265 Kbps
Channel(s) : 2 channels
Channel positions : L R
Sampling rate : 48.0 KHz
Resolution : 16 bits
Stream size : 108 MiB (12%)
Language : English
Encoded date : UTC 2009-06-04 15:29:39
Tagged date : UTC 2009-06-04 19:50:29

related torrents

Torrent name

health leech seeds Size
 


comments (0)

Main Menu